<?xml version="1.0" standalone="no"?>
<!DOCTYPE svg PUBLIC "-//W3C//DTD SVG 1.1//EN" "http://www.w3.org/Graphics/SVG/1.1/DTD/svg11.dtd" >
<svg xmlns="http://www.w3.org/2000/svg">
<metadata></metadata>
<defs>
<font id="gibsonsemibold_italic" horiz-adv-x="1243" >
<font-face units-per-em="2048" ascent="1638" descent="-410" />
<missing-glyph horiz-adv-x="391" />
<glyph unicode="&#xfb01;" horiz-adv-x="1204" d="M20 -371q32 62 46 148l157 981h-125l39 252h125q13 83 30.5 143t49 117t75.5 92.5t111.5 56.5t155.5 21q122 0 211 -27l-53 -231q-56 18 -115 18q-41 0 -68 -13t-41 -40.5t-20 -51.5t-13 -65q-2 -13 -3 -20h211l-41 -252h-209l-156 -969q-7 -45 -19.5 -85t-21.5 -58 l-8 -17h-318zM745 72q0 36 9 88l108 702q6 46 6 84l-4 64h318q6 -23 6 -68q0 -43 -8 -92l-109 -703q-6 -43 -6 -75q0 -20 1.5 -38t3.5 -26l1 -8h-317q-9 25 -9 72zM907 1264q0 88 61 145t150 57q69 0 112.5 -37t43.5 -104q0 -87 -61 -145t-150 -58q-67 0 -111.5 37.5 t-44.5 104.5z" />
<glyph unicode="&#xfb02;" horiz-adv-x="1214" d="M20 -371q32 62 46 148l157 981h-125l39 252h125q13 83 30.5 143t49 117t75.5 92.5t111.5 56.5t155.5 21q122 0 211 -27l-53 -231q-56 18 -115 18q-41 0 -68 -13t-41 -40.5t-20 -51.5t-13 -65q-2 -13 -3 -20h211l-41 -252h-209l-156 -969q-7 -45 -19.5 -85t-21.5 -58 l-8 -17h-318zM750 72q0 41 8 88l174 1106q6 46 6 84l-4 63h317q6 -22 6 -67q0 -44 -8 -93l-174 -1106q-6 -43 -6 -75q0 -20 1.5 -38t3.5 -26l1 -8h-317q-8 25 -8 72z" />
<glyph unicode="&#xfb03;" horiz-adv-x="1826" d="M20 -371q32 62 46 148l157 981h-125l39 252h125q13 83 30.5 143t49 117t75.5 92.5t111.5 56.5t155.5 21q122 0 211 -27l-53 -231q-56 18 -115 18q-41 0 -68 -13t-41 -40.5t-20 -51.5t-13 -65q-2 -13 -3 -20h325q13 83 30.5 143t49 117t75.5 92.5t111.5 56.5t155.5 21 q122 0 211 -27l-53 -231q-55 18 -115 18q-41 0 -68 -13t-41 -40.5t-20 -51.5t-13 -65q-2 -13 -3 -20h211l-41 -252h-209l-156 -969q-7 -45 -19.5 -85t-20.5 -58l-9 -17h-317q31 62 45 148l157 981h-325l-156 -969q-7 -45 -19.5 -85t-21.5 -58l-8 -17h-318zM1374 72 q0 41 8 88l109 702q6 46 6 84l-4 64h317q7 -23 7 -68q0 -36 -9 -92l-108 -703q-6 -43 -6 -75q0 -20 1.5 -38t2.5 -26l2 -8h-318q-8 25 -8 72zM1536 1264q0 88 61 145t150 57q69 0 112.5 -37t43.5 -104q0 -87 -61 -145t-150 -58q-67 0 -111.5 37.5t-44.5 104.5z" />
<glyph unicode="&#xfb04;" horiz-adv-x="1832" d="M20 -371q32 62 46 148l157 981h-125l39 252h125q13 83 30.5 143t49 117t75.5 92.5t111.5 56.5t155.5 21q122 0 211 -27l-53 -231q-56 18 -115 18q-41 0 -68 -13t-41 -40.5t-20 -51.5t-13 -65q-2 -13 -3 -20h325q13 83 30.5 143t49 117t75.5 92.5t111.5 56.5t155.5 21 q122 0 211 -27l-53 -231q-55 18 -115 18q-41 0 -68 -13t-41 -40.5t-20 -51.5t-13 -65q-2 -13 -3 -20h211l-41 -252h-209l-156 -969q-7 -45 -19.5 -85t-20.5 -58l-9 -17h-317q31 62 45 148l157 981h-325l-156 -969q-7 -45 -19.5 -85t-21.5 -58l-8 -17h-318zM1376 72 q0 41 8 88l175 1106q6 46 6 84l-4 63h317q6 -22 6 -67q0 -44 -8 -93l-174 -1106q-6 -43 -6 -75q0 -20 1.5 -38t2.5 -26l2 -8h-318q-8 25 -8 72z" />
<glyph horiz-adv-x="2048" />
<glyph horiz-adv-x="2048" />
<glyph unicode="&#xd;" horiz-adv-x="2048" />
<glyph unicode=" "  horiz-adv-x="391" />
<glyph unicode="&#x09;" horiz-adv-x="391" />
<glyph unicode="&#xa0;" horiz-adv-x="391" />
<glyph unicode="!" horiz-adv-x="647" d="M113 121q0 94 62.5 152.5t156.5 58.5q71 0 116.5 -36.5t45.5 -105.5q0 -94 -62.5 -153.5t-155.5 -59.5q-71 0 -117 37.5t-46 106.5zM209 432l127 981h334l-185 -981h-276z" />
<glyph unicode="&#x22;" horiz-adv-x="1024" d="M283 903l47 510h295l-115 -510h-227zM709 903l45 510h297l-117 -510h-225z" />
<glyph unicode="#" horiz-adv-x="1298" d="M106 434l29 178h234l92 283h-213l28 176h242l139 424h185l-140 -424h242l137 424h185l-138 -424h207l-28 -176h-238l-90 -283h215l-29 -178h-245l-138 -422h-184l137 422h-239l-140 -422h-184l139 422h-205zM553 612h242l90 283h-240z" />
<glyph unicode="$" d="M127 209l176 203q28 -64 106.5 -112.5t151.5 -53.5l62 338q-139 65 -192 104q-121 89 -129 231q-1 11 -1 23q0 204 135.5 328.5t341.5 140.5l21 111h145l-22 -113q94 -9 176.5 -52.5t130.5 -115.5l-152 -201q-37 52 -94 87t-119 44l-57 -321q136 -67 181 -99 q117 -82 134 -208q4 -26 4 -54q0 -131 -65.5 -240t-174.5 -173t-239 -74l-20 -113h-146l21 109q-115 5 -216.5 60.5t-158.5 150.5zM590 1018q0 -45 24.5 -71.5t71.5 -51.5l51 281q-63 -6 -105 -50.5t-42 -107.5zM688 244q64 6 109 56t45 114q0 26 -6.5 45t-25 35.5t-29 23.5 t-40.5 25z" />
<glyph unicode="%" horiz-adv-x="1716" d="M201 987q0 120 50 219.5t146.5 160t220.5 60.5q136 0 219 -79.5t83 -214.5q0 -184 -116.5 -313.5t-301.5 -129.5q-136 0 -218.5 80.5t-82.5 216.5zM322 37l1071 1413l125 -86l-1072 -1413zM414 1020q0 -61 30 -97t88 -36q83 0 131 66t48 151q0 61 -31.5 98t-91.5 37 q-82 0 -128 -67t-46 -152zM920 268q0 120 50.5 219.5t147 160.5t219.5 61q136 0 219.5 -80t83.5 -215q0 -120 -50.5 -219.5t-147.5 -160.5t-221 -61q-136 0 -218.5 79.5t-82.5 215.5zM1133 301q0 -61 30 -97t88 -36q83 0 131 67t48 152q0 59 -31.5 96t-89.5 37 q-82 0 -129 -67t-47 -152z" />
<glyph unicode="&#x26;" horiz-adv-x="1495" d="M80 317q0 89 31.5 166t88.5 135t124.5 101.5t150.5 77.5q-94 135 -94 247q0 95 39.5 172t106 125t151 73.5t178.5 25.5q68 0 129.5 -15.5t113.5 -47t82.5 -86t30.5 -126.5q0 -134 -89.5 -240.5t-225.5 -176.5l143 -207q112 106 211 254l205 -127q-147 -204 -274 -316 l256 -334l-4 -18h-365l-108 152q-116 -88 -225 -132.5t-238 -44.5q-87 0 -160.5 19t-132.5 58.5t-92 107t-33 157.5zM395 373q0 -68 47 -109t115 -41q69 0 138.5 32.5t123.5 84.5l-205 283q-49 -25 -79.5 -44t-67 -50t-54.5 -70t-18 -86zM678 1073q0 -17 4.5 -34.5t15 -36 t17.5 -29.5t22.5 -32.5t20.5 -27.5q37 22 62 39t55.5 44t46.5 59t16 67q0 47 -31.5 71t-79.5 24q-64 0 -106.5 -40t-42.5 -104z" />
<glyph unicode="'" horiz-adv-x="694" d="M332 903l47 510h295l-115 -510h-227z" />
<glyph unicode="(" horiz-adv-x="663" d="M127 362q0 343 127 649t362 597l187 -107q-178 -221 -290 -531t-112 -589q0 -159 31 -332t92 -299l-217 -106q-180 362 -180 718z" />
<glyph unicode=")" horiz-adv-x="663" d="M-29 -250q178 223 290 532t112 588q0 158 -31.5 332t-91.5 299l217 107q180 -362 180 -717q0 -344 -127 -649t-364 -598z" />
<glyph unicode="*" horiz-adv-x="1042" d="M260 1126l84 174l248 -114l24 284h183l-66 -284l285 114l31 -174l-301 -79l153 -259l-160 -102l-114 272l-201 -272l-127 102l236 259z" />
<glyph unicode="+" horiz-adv-x="1435" d="M115 588v237h442v441h240v-441h442v-237h-442v-441h-240v441h-442z" />
<glyph unicode="," horiz-adv-x="647" d="M-25 -287l263 586h305l-305 -586h-263z" />
<glyph unicode="-" horiz-adv-x="671" d="M82 422l41 256h553l-41 -256h-553z" />
<glyph unicode="." horiz-adv-x="647" d="M113 119q0 94 62.5 152.5t156.5 58.5q70 0 116 -37t46 -107q0 -92 -63 -150.5t-155 -58.5q-71 0 -117 36.5t-46 105.5z" />
<glyph unicode="/" horiz-adv-x="1077" d="M-25 -113l1090 1745l172 -90l-1087 -1743z" />
<glyph unicode="0" d="M106 522q0 104 18.5 209.5t55 208t95 191.5t133 157t176 107t217.5 39q120 0 211 -43t145.5 -119t81.5 -173t27 -212q0 -126 -25.5 -252t-82 -245.5t-136 -211t-197 -147.5t-256.5 -56q-120 0 -211 43t-145 119t-80.5 172.5t-26.5 212.5zM426 551q0 -54 8 -99.5 t27.5 -90.5t59 -71t95.5 -26q72 0 131.5 45t95.5 112.5t61 152t34.5 159t9.5 137.5q0 53 -8 99t-28 90t-59 70t-95 26q-74 0 -133.5 -44.5t-95.5 -112t-60 -152t-33.5 -158t-9.5 -137.5z" />
<glyph unicode="1" horiz-adv-x="929" d="M272 1184l35 229h557l-223 -1413h-311l188 1184h-246z" />
<glyph unicode="2" d="M106 213l529 430q44 36 70.5 59t67.5 64t64 75.5t40.5 80t17.5 90.5q0 79 -53.5 118t-134.5 39q-180 0 -355 -186l-106 215q89 113 228 174.5t304 61.5q68 0 130 -12t118 -38.5t97 -66t65 -98.5t24 -132q0 -92 -28 -174t-82 -153t-110 -124.5t-136 -115.5l-330 -260h623 l-41 -260h-997z" />
<glyph unicode="3" d="M86 213l180 201q46 -71 134 -123.5t171 -52.5q109 0 190 61t81 168q0 25 -6 46.5t-14.5 36.5t-24.5 27t-30 19.5t-36.5 12.5t-38.5 7.5t-42 4t-40.5 1.5t-41 -0.5t-36.5 -0.5l37 235q135 0 187 12q136 32 141 170v11q0 67 -49.5 100t-120.5 33q-162 0 -348 -138l-86 211 q115 93 234 136t264 43q77 0 149 -19.5t133.5 -57t99 -101.5t37.5 -146q0 -65 -15 -118.5t-36 -89t-57 -67t-66 -49.5t-75 -41v-2q89 -26 140.5 -100t51.5 -168q0 -120 -52.5 -217t-139.5 -157t-193.5 -92t-220.5 -32q-88 0 -176 25t-166.5 80t-118.5 131z" />
<glyph unicode="4" d="M45 283l39 260l764 874h348l-137 -876h178l-41 -258h-178l-45 -283h-311l45 283h-662zM381 535h373l84 538z" />
<glyph unicode="5" d="M78 211l180 199q42 -80 126.5 -126t178.5 -46q123 0 209 79t86 201q0 91 -63.5 141t-157.5 50q-146 0 -258 -74l-125 88l219 690h791l-41 -258h-555l-86 -248q71 31 182 31q175 0 292.5 -103t117.5 -276q0 -130 -51 -240.5t-137 -184.5t-201 -115.5t-242 -41.5 q-147 0 -277.5 58t-187.5 176z" />
<glyph unicode="6" d="M145 498q0 134 28 265.5t88 253t145 214t208 148t267 55.5q111 0 214.5 -36t180.5 -106l-150 -217q-43 47 -124 76t-150 29q-66 0 -123 -26.5t-96.5 -69t-70.5 -100t-49 -114.5t-28 -118q62 81 158.5 122t206.5 41q154 0 252 -98.5t98 -253.5q0 -166 -78.5 -300.5 t-214.5 -210t-301 -75.5q-114 0 -203.5 40.5t-145 112t-84 165t-28.5 203.5zM451 416q0 -84 49 -136.5t133 -52.5q109 0 182.5 83t73.5 192q0 84 -49 136t-133 52q-108 0 -182 -82t-74 -192z" />
<glyph unicode="7" d="M188 0l777 1155h-707l41 258h965l63 -190l-805 -1223h-334z" />
<glyph unicode="8" d="M111 328q0 147 81.5 257.5t221.5 153.5l2 2q-80 31 -122 92t-42 146q0 88 30.5 162.5t82.5 128t122 91t149.5 55.5t164.5 18q64 0 123.5 -11t115 -36t96.5 -62t66 -93t25 -124q0 -129 -68.5 -227.5t-189.5 -141.5v-2q93 -32 143.5 -102t50.5 -168q0 -95 -33 -176 t-89.5 -138t-132 -97t-161 -59.5t-176.5 -19.5q-88 0 -167 19.5t-146 59.5t-107 110t-40 162zM430 395q0 -76 51.5 -119t128.5 -43q102 0 173 67t71 169q0 77 -50.5 118.5t-129.5 41.5q-103 0 -173.5 -66.5t-70.5 -167.5zM555 985q0 -65 43 -99t111 -34q90 0 148 56.5 t58 146.5q0 66 -42.5 100.5t-110.5 34.5q-90 0 -148.5 -57.5t-58.5 -147.5z" />
<glyph unicode="9" d="M92 117l150 219q42 -46 126.5 -75.5t153.5 -29.5q65 0 121.5 26.5t96 69t70.5 100t49 115t28 117.5q-62 -81 -158.5 -122t-206.5 -41q-155 0 -253.5 98.5t-98.5 253.5q0 166 79 300.5t215.5 210t301.5 75.5q114 0 203 -41t144.5 -112.5t83.5 -165.5t28 -204 q0 -133 -27 -263t-85.5 -252t-142 -214.5t-207 -148.5t-269.5 -56q-113 0 -219.5 35t-182.5 105zM483 909q0 -84 49.5 -136t133.5 -52q108 0 182 82t74 192q0 84 -50.5 136.5t-134.5 52.5q-107 0 -180.5 -83t-73.5 -192z" />
<glyph unicode=":" horiz-adv-x="647" d="M113 121q0 93 63 152t156 59q71 0 116.5 -37t45.5 -107q0 -93 -62.5 -152t-155.5 -59q-71 0 -117 37.5t-46 106.5zM223 817q0 93 63 152t156 59q71 0 116.5 -36.5t45.5 -106.5q0 -93 -62 -152t-157 -59q-70 0 -116 37t-46 106z" />
<glyph unicode=";" horiz-adv-x="647" d="M-25 -287l263 588h307l-307 -588h-263zM223 817q0 93 63 152t156 59q71 0 116.5 -36.5t45.5 -106.5q0 -93 -62 -152t-157 -59q-70 0 -116 37t-46 106z" />
<glyph unicode="&#x3c;" horiz-adv-x="1435" d="M115 571v271l1124 422v-263l-805 -294l805 -295v-265z" />
<glyph unicode="=" horiz-adv-x="1435" d="M115 360v240h1124v-240h-1124zM115 813v240h1124v-240h-1124z" />
<glyph unicode="&#x3e;" horiz-adv-x="1435" d="M115 147v265l805 295l-805 294v263l1124 -422v-271z" />
<glyph unicode="?" horiz-adv-x="1060" d="M254 121q0 94 61.5 152.5t155.5 58.5q71 0 117.5 -36.5t46.5 -105.5q0 -94 -62.5 -153.5t-156.5 -59.5q-71 0 -116.5 37.5t-45.5 106.5zM256 1276q87 80 204 119t245 39q71 0 136.5 -20t118 -58t84 -98.5t31.5 -135.5q0 -64 -17.5 -121t-44.5 -101t-71.5 -88t-85.5 -75.5 t-98 -70.5q-58 -36 -84 -62q-14 -14 -23.5 -37.5t-13 -42t-8 -50t-6.5 -42.5h-271l21 137q9 63 36.5 115t63.5 86t77.5 63t81 53t72 48t52.5 55t20 68q0 42 -28 68t-62 34t-76 8q-160 0 -297 -127z" />
<glyph unicode="@" horiz-adv-x="1589" d="M84 268q0 175 68 339.5t183.5 287.5t278.5 197.5t342 74.5q123 0 230 -33t189.5 -96t130.5 -163.5t48 -227.5q0 -110 -38.5 -224t-106 -208.5t-169.5 -154.5t-218 -60q-66 0 -110 29.5t-48 91.5q-134 -121 -252 -121q-105 0 -162 68.5t-57 175.5q0 99 37.5 202t102 188.5 t159.5 140t201 54.5q59 0 112 -20t80 -64l21 50h176q-7 -16 -50.5 -117t-80.5 -189t-69.5 -177t-32.5 -115q0 -45 51 -45q67 0 127 53.5t96.5 130.5t58 156.5t21.5 138.5q0 131 -63.5 223t-165.5 134t-232 42q-147 0 -278.5 -61.5t-222.5 -164t-144 -237.5t-53 -280 q0 -222 130.5 -349.5t352.5 -127.5q134 0 241.5 30t254.5 97l34 -111q-153 -82 -283 -118t-294 -36q-267 0 -431.5 164.5t-164.5 431.5zM575 291q0 -61 30 -97t89 -36q49 0 93 25t73.5 59.5t58.5 89.5t44.5 96t36.5 99.5t30 80.5q-42 74 -139 74q-86 0 -161 -64.5t-115 -154 t-40 -172.5z" />
<glyph unicode="A" horiz-adv-x="1349" d="M-53 0l739 1415h332l289 -1415h-351l-51 283h-481l-141 -283h-336zM541 547h331l-88 497z" />
<glyph unicode="B" horiz-adv-x="1236" d="M82 0l223 1413h465q70 0 126.5 -5.5t121 -24t108 -49t72.5 -86t29 -130.5q0 -266 -254 -373v-2q107 -29 170 -100t63 -178q0 -116 -48.5 -207.5t-130 -146.5t-181 -83t-209.5 -28h-555zM442 256h183q113 0 185.5 51.5t72.5 161.5q0 141 -211 141h-174zM535 842h133 q103 0 167 48.5t64 149.5q0 40 -15.5 66t-44.5 37.5t-57 15.5t-67 4h-129z" />
<glyph unicode="C" horiz-adv-x="1290" d="M113 561q0 181 62 341.5t171 278t266.5 185.5t339.5 68q126 0 252.5 -39.5t192.5 -122.5l-146 -277q-40 64 -141 106t-184 42q-106 0 -197 -42.5t-153 -114t-97 -166t-35 -197.5q0 -157 93.5 -249.5t250.5 -92.5q109 0 211 38.5t179 110.5l71 -266q-102 -96 -238 -142.5 t-288 -46.5q-274 0 -442 157.5t-168 428.5z" />
<glyph unicode="D" horiz-adv-x="1396" d="M82 0l223 1413h461q110 0 205.5 -20.5t177 -64t139.5 -108.5t90.5 -158t32.5 -208q0 -260 -109.5 -454.5t-305.5 -297t-453 -102.5h-461zM446 285h160q145 0 255 70t166 186.5t56 261.5q0 161 -90.5 246.5t-251.5 85.5h-159z" />
<glyph unicode="E" horiz-adv-x="1103" d="M82 0l223 1413h883l-43 -268h-561l-45 -283h530l-43 -268h-530l-52 -324h580l-43 -270h-899z" />
<glyph unicode="F" horiz-adv-x="1036" d="M82 0l223 1413h852l-43 -268h-530l-56 -340h500l-41 -268h-502l-84 -537h-319z" />
<glyph unicode="G" horiz-adv-x="1476" d="M113 563q0 180 61.5 340t170 277t266 185.5t339.5 68.5q173 0 300.5 -57.5t224.5 -190.5l-242 -187q-110 158 -326 158q-106 0 -195.5 -48t-147.5 -126.5t-90 -176.5t-32 -200q0 -156 86.5 -252t241.5 -96q83 0 169 20.5t128 67.5l33 205h-287l41 256h598l-92 -586 q-152 -129 -301 -186.5t-342 -57.5q-270 0 -437 159.5t-167 426.5z" />
<glyph unicode="H" horiz-adv-x="1443" d="M82 0l223 1413h322l-86 -545h540l86 545h322l-223 -1413h-322l94 590h-542l-93 -590h-321z" />
<glyph unicode="I" horiz-adv-x="571" d="M82 0l223 1413h322l-224 -1413h-321z" />
<glyph unicode="J" horiz-adv-x="569" d="M-193 -362l52 245q47 -20 104 -20q31 0 54 14.5t36.5 41.5t20 50.5t12.5 55.5l219 1388h320l-219 -1384q-14 -92 -40.5 -163.5t-71.5 -132.5t-118 -94.5t-170 -33.5q-44 0 -108.5 9t-90.5 24z" />
<glyph unicode="K" horiz-adv-x="1249" d="M82 0l223 1413h320l-80 -512l495 512h383l-569 -563l379 -850h-387l-246 588l-125 -123l-74 -465h-319z" />
<glyph unicode="L" horiz-adv-x="940" d="M82 0l223 1413h320l-181 -1134h471l-43 -279h-790z" />
<glyph unicode="M" horiz-adv-x="1736" d="M31 0l325 1413h406l133 -926h2l426 926h406l-123 -1413h-316l101 961h-2l-443 -961h-254l-141 961h-2l-201 -961h-317z" />
<glyph unicode="N" horiz-adv-x="1488" d="M82 0l223 1413h344l428 -942q18 142 40.5 292.5t56.5 358.5t47 291h315l-225 -1413h-328l-442 950q-31 -240 -146 -950h-313z" />
<glyph unicode="O" horiz-adv-x="1564" d="M113 563q0 183 63 344.5t173.5 277.5t269.5 183.5t342 67.5q180 0 319 -69.5t218 -204t79 -316.5q0 -244 -107 -442.5t-302 -313.5t-439 -115q-179 0 -318 69t-218.5 203.5t-79.5 315.5zM444 623q0 -156 89.5 -252.5t242.5 -96.5q138 0 248.5 77t167.5 197t57 255 q0 156 -89.5 252t-244.5 96q-104 0 -193.5 -45t-149.5 -118.5t-94 -168.5t-34 -196z" />
<glyph unicode="P" horiz-adv-x="1148" d="M82 0l223 1413h488q72 0 134 -11.5t118 -38t96 -66.5t63 -101t23 -137q0 -173 -74 -296q-75 -123 -203 -183q-126 -59 -293 -58h-6h-166l-82 -522h-321zM524 780h123q112 0 181 57.5t69 168.5q0 149 -190 149h-123z" />
<glyph unicode="Q" horiz-adv-x="1564" d="M113 563q0 183 63 344.5t173.5 277.5t269.5 183.5t342 67.5q180 0 319 -69.5t218 -204t79 -316.5q0 -185 -63.5 -346t-180.5 -281l121 -172l-227 -172l-125 180q-174 -80 -373 -80q-179 0 -318 69t-218.5 203.5t-79.5 315.5zM444 623q0 -156 89.5 -252.5t242.5 -96.5 q86 0 156 27l-70 100l225 172l66 -94q96 148 96 324q0 156 -89.5 252t-244.5 96q-104 0 -193.5 -45t-149.5 -118.5t-94 -168.5t-34 -196z" />
<glyph unicode="R" horiz-adv-x="1191" d="M82 0l223 1413h488q72 0 135.5 -10.5t122.5 -36t100.5 -65t66.5 -100.5t25 -138q0 -162 -92.5 -297.5t-243.5 -181.5l254 -584h-375l-200 539h-99l-84 -539h-321zM528 797h125q115 0 187.5 52t72.5 163q0 143 -204 143h-125z" />
<glyph unicode="S" horiz-adv-x="1095" d="M20 193l193 241q57 -76 149 -128t179 -52q91 0 147.5 44.5t56.5 119.5q0 40 -30 70.5t-78 52.5t-106 43.5t-116 50t-106 65t-78 95.5t-30 135q0 123 43.5 220t121 158.5t179 93.5t221.5 32q78 0 149.5 -18.5t118 -45t81.5 -52.5t51 -44l16 -19l-170 -235 q-57 66 -139.5 104.5t-155.5 38.5q-78 0 -133.5 -36t-55.5 -107q0 -38 30 -68t78.5 -52t107 -44.5t116.5 -53t106.5 -68.5t78.5 -99.5t30 -138.5q0 -110 -38 -200t-99 -148.5t-140.5 -98.5t-158.5 -57t-156 -17q-137 0 -257 58.5t-206 159.5z" />
<glyph unicode="T" horiz-adv-x="1044" d="M145 1147l43 266h1022l-41 -266h-350l-182 -1147h-322l183 1147h-353z" />
<glyph unicode="U" horiz-adv-x="1378" d="M147 410q0 66 19 182l129 821h323l-131 -823q-10 -65 -10 -119q0 -96 55 -149.5t152 -53.5q59 0 105.5 17.5t78 46t55 71t36.5 87.5t22 100l131 823h322l-129 -821q-98 -615 -668 -615q-108 0 -196 25.5t-154.5 77t-103 135.5t-36.5 195z" />
<glyph unicode="V" horiz-adv-x="1306" d="M172 1413h342l164 -967l469 967h342l-731 -1413h-303z" />
<glyph unicode="W" horiz-adv-x="1949" d="M176 1413h334l86 -942l391 942h322l94 -942l383 942h336l-619 -1413h-321l-105 961l-409 -961h-322z" />
<glyph unicode="X" horiz-adv-x="1290" d="M-66 0l568 733l-316 680h383l179 -463l325 463h383l-530 -680l336 -733h-385l-197 522l-361 -522h-385z" />
<glyph unicode="Y" horiz-adv-x="1230" d="M158 1413h358l189 -559l364 559h356l-606 -842l-90 -571h-321l90 571z" />
<glyph unicode="Z" horiz-adv-x="1216" d="M16 0l39 242l805 901h-643l43 270h1059l-37 -227l-811 -907h690l-43 -279h-1102z" />
<glyph unicode="[" horiz-adv-x="663" d="M18 -309l297 1870h459l-24 -162h-205l-246 -1549h205l-25 -159h-461z" />
<glyph unicode="\" horiz-adv-x="1073" d="M248 1544l188 84l533 -1685l-189 -86z" />
<glyph unicode="]" horiz-adv-x="663" d="M6 -309l27 159h205l243 1549h-205l27 162h459l-295 -1870h-461z" />
<glyph unicode="^" horiz-adv-x="1435" d="M162 614l381 844h268l381 -844h-262l-252 582l-254 -582h-262z" />
<glyph unicode="_" horiz-adv-x="1024" d="M0 -123v246h1024v-246h-1024z" />
<glyph unicode="`" horiz-adv-x="829" d="M377 1413h274l111 -297h-227z" />
<glyph unicode="a" horiz-adv-x="1251" d="M76 395q0 118 38 230.5t106.5 203t174.5 146t232 55.5q88 0 166.5 -34t117.5 -103q2 19 17 117h319l-137 -863q-6 -43 -6 -75q0 -20 1.5 -38t2.5 -26l2 -8h-297q-8 25 -8 72q0 36 2 59h-2q-64 -73 -154.5 -113.5t-189.5 -40.5q-181 0 -283 116.5t-102 301.5zM406 453 q0 -90 49.5 -146.5t138.5 -56.5q120 0 195 95.5t75 219.5q0 90 -49.5 146.5t-138.5 56.5q-120 0 -195 -95.5t-75 -219.5z" />
<glyph unicode="b" horiz-adv-x="1251" d="M45 0q33 61 45 141l178 1119q7 45 20 83.5t22 54.5l9 15h316q-33 -57 -47 -143l-64 -381h2q60 69 147.5 105t182.5 36q181 0 282 -116t101 -300q0 -120 -38 -233.5t-106.5 -203.5t-174.5 -145t-232 -55q-97 0 -176 37.5t-121 116.5h-2q-7 -38 -18.5 -71t-18.5 -46l-8 -14 h-299zM453 453q0 -90 49.5 -146.5t138.5 -56.5q120 0 195 95.5t75 219.5q0 90 -49.5 146.5t-138.5 56.5q-120 0 -195 -95.5t-75 -219.5z" />
<glyph unicode="c" horiz-adv-x="958" d="M76 406q0 170 78.5 312.5t219 226t312.5 83.5q89 0 186 -26.5t148 -79.5l-111 -254q-36 48 -97.5 73t-127.5 25q-123 0 -204 -93t-81 -218q0 -96 57.5 -150.5t153.5 -54.5q66 0 138.5 25.5t125.5 66.5l29 -250q-69 -56 -178 -85.5t-209 -29.5q-194 0 -317 118.5 t-123 310.5z" />
<glyph unicode="d" horiz-adv-x="1251" d="M76 395q0 118 38 230.5t106.5 203t174.5 146t232 55.5q88 0 166.5 -34t117.5 -103q7 53 58 373q6 46 6 84l-4 63h317q6 -22 6 -67q0 -44 -8 -93l-176 -1106q-6 -43 -6 -75q0 -20 1.5 -38t2.5 -26l2 -8h-299q-8 25 -8 72q0 36 2 59q-64 -73 -154.5 -113.5t-189.5 -40.5 q-181 0 -283 116.5t-102 301.5zM406 453q0 -90 49.5 -146.5t138.5 -56.5q120 0 195 95.5t75 219.5q0 90 -49.5 146.5t-138.5 56.5q-120 0 -195 -95.5t-75 -219.5z" />
<glyph unicode="e" horiz-adv-x="1120" d="M76 397q0 136 54 255.5t143 200.5t204.5 128t237.5 47q80 0 149.5 -14.5t128.5 -46t93 -87.5t34 -132q0 -160 -126 -259.5t-332 -99.5q-136 0 -273 35v-14q0 -96 59 -144.5t156 -48.5q146 0 307 100l103 -174q-109 -86 -225 -126t-267 -40q-201 0 -323.5 110t-122.5 310z M416 602q80 -6 145 -6q46 0 90 6.5t90 21.5t74.5 47t28.5 77q0 44 -35 65t-88 21q-102 0 -195.5 -76.5t-109.5 -155.5z" />
<glyph unicode="f" horiz-adv-x="645" d="M20 -371q32 62 46 148l157 981h-125l39 252h125q13 83 30.5 143t49 117t75.5 92.5t111.5 56.5t155.5 21q122 0 211 -27l-53 -231q-56 18 -115 18q-41 0 -68 -13t-41 -40.5t-20 -51.5t-13 -65q-2 -13 -3 -20h211l-41 -252h-209l-156 -969q-7 -45 -19.5 -85t-21.5 -58 l-8 -17h-318z" />
<glyph unicode="g" horiz-adv-x="1247" d="M-16 -240l161 213q60 -51 148.5 -81.5t169.5 -30.5q158 0 236 76.5t100 236.5q-128 -143 -330 -143q-177 0 -283 109.5t-106 285.5q0 117 38.5 225.5t107.5 192t173.5 134t227.5 50.5q94 0 170 -37t116 -117q7 36 18.5 70t18.5 50l8 16h312q-33 -62 -47 -148l-103 -657 q-46 -294 -218.5 -445t-469.5 -151q-119 0 -241 39.5t-207 111.5zM410 479q0 -89 51 -141.5t139 -52.5q115 0 190.5 86t75.5 204q0 88 -50.5 140.5t-139.5 52.5q-115 0 -190.5 -86t-75.5 -203z" />
<glyph unicode="h" horiz-adv-x="1169" d="M68 0l200 1266q6 46 6 84l-4 63h318q6 -22 6 -67q0 -44 -8 -93l-62 -381q56 75 136 116.5t171 41.5q151 0 225 -72.5t74 -222.5q0 -69 -12 -137l-71 -451q-7 -51 -7 -75q0 -20 2 -38t4 -26l1 -8h-318q-8 25 -8 72q0 41 8 88l59 372q11 57 11 95q0 65 -28.5 98t-92.5 33 q-172 0 -211 -260l-80 -498h-319z" />
<glyph unicode="i" horiz-adv-x="536" d="M84 72q0 41 8 88l109 702q6 46 6 84l-4 64h317q6 -23 6 -68q0 -43 -8 -92l-108 -703q-7 -51 -7 -75q0 -20 1.5 -38t3.5 -26l2 -8h-318q-8 25 -8 72zM246 1264q0 88 61 145t150 57q68 0 111.5 -37t43.5 -104q0 -87 -61 -145t-150 -58q-67 0 -111 37.5t-44 104.5z" />
<glyph unicode="j" horiz-adv-x="536" d="M-195 -371l48 256q41 -14 88 -14q28 0 50 10.5t35 25.5t23 40t14.5 45t8.5 49l129 811q7 45 20 85t22 57l9 18h315q-33 -62 -47 -148l-131 -839q-15 -94 -43 -166t-76.5 -130.5t-124.5 -89t-176 -30.5q-103 0 -164 20zM246 1264q0 88 61 145t150 57q68 0 111.5 -37 t43.5 -104q0 -88 -61 -145.5t-150 -57.5q-67 0 -111 37.5t-44 104.5z" />
<glyph unicode="k" horiz-adv-x="1093" d="M68 0l200 1266q6 46 6 84l-4 63h316q6 -22 6 -67q0 -44 -8 -93l-88 -571l346 328h366l-417 -379l284 -631h-366l-177 391l-96 -86l-49 -305h-319z" />
<glyph unicode="l" horiz-adv-x="542" d="M86 72q0 41 8 88l174 1106q6 46 6 84l-4 63h318q6 -22 6 -67q0 -44 -8 -93l-174 -1106q-6 -43 -6 -75q0 -20 1.5 -38t2.5 -26l2 -8h-318q-8 25 -8 72z" />
<glyph unicode="m" horiz-adv-x="1736" d="M61 0l138 864q6 46 6 82l-4 64h313q6 -23 6 -68q0 -32 -6 -76h2q54 72 131.5 117t163.5 45q221 0 260 -180q129 180 336 180q283 0 283 -297q0 -46 -11 -125l-71 -459q-6 -43 -6 -75q0 -20 1.5 -38t2.5 -26l2 -8h-320q-8 25 -8 72q0 41 8 88l62 389q8 58 8 84 q0 125 -103 125q-45 0 -80 -22t-57 -59.5t-35 -76.5t-20 -82l-82 -518h-319l88 549q8 58 8 84q0 125 -103 125q-45 0 -80 -22t-57 -59.5t-35 -76.5t-20 -82l-82 -518h-320z" />
<glyph unicode="n" horiz-adv-x="1165" d="M61 0l136 858q6 46 6 88l-4 64h315q6 -23 6 -68q0 -32 -6 -76h2q57 76 136.5 119t170.5 43q151 0 225 -73t74 -222q0 -69 -12 -139l-72 -447q-6 -44 -6 -75q0 -20 1.5 -38t2.5 -26l2 -8h-315q-8 25 -8 72q0 41 8 88l57 366q11 64 11 101q0 65 -28.5 98t-92.5 33 q-171 0 -209 -258l-80 -500h-320z" />
<glyph unicode="o" horiz-adv-x="1183" d="M76 403q0 132 48 247.5t131.5 198.5t200.5 131t251 48q204 0 334 -113.5t130 -314.5q0 -176 -81 -318.5t-225 -223.5t-324 -81q-133 0 -237 48t-166 146t-62 232zM401 451q0 -90 47.5 -145.5t135.5 -55.5q119 0 191.5 96t72.5 219q0 90 -47 145.5t-135 55.5 q-119 0 -192 -96t-73 -219z" />
<glyph unicode="p" horiz-adv-x="1247" d="M23 -299q0 41 8 88l170 1073q6 46 6 84l-4 64h303q6 -23 6 -68q0 -26 -6 -61h2q138 147 344 147q181 0 283 -116t102 -300q0 -118 -39.5 -231.5t-109.5 -204t-176 -146t-228 -55.5q-92 0 -167 35.5t-114 110.5l-55 -344q-6 -43 -6 -76q0 -20 1.5 -38t2.5 -26l2 -8h-317 q-8 25 -8 72zM449 451q0 -90 50 -146.5t140 -56.5q120 0 195 95.5t75 219.5q0 90 -49.5 146.5t-138.5 56.5q-82 0 -145.5 -46.5t-95 -117.5t-31.5 -151z" />
<glyph unicode="q" d="M76 393q0 118 39.5 231.5t109 203.5t175 145t227.5 55q205 0 301 -147q8 37 20 70t20 47l7 14h297q-33 -62 -47 -148l-170 -1085q-6 -44 -6 -76q0 -20 1.5 -38t3.5 -26l1 -8h-320q-8 25 -8 72q0 41 8 88l56 336q-60 -75 -145.5 -113.5t-184.5 -38.5q-181 0 -283 117 t-102 301zM406 451q0 -90 49.5 -146.5t138.5 -56.5q120 0 195 95.5t75 219.5q0 90 -49.5 146.5t-138.5 56.5q-120 0 -195 -95.5t-75 -219.5z" />
<glyph unicode="r" horiz-adv-x="770" d="M61 0l136 860q6 46 6 86l-4 64h317q6 -23 6 -68q0 -43 -8 -76q47 74 115.5 118t152.5 44q65 0 97 -18l-64 -303h-16q-44 24 -111 24q-45 0 -82.5 -17t-62.5 -44.5t-44 -65.5t-29.5 -75.5t-16.5 -79.5l-72 -449h-320z" />
<glyph unicode="s" horiz-adv-x="894" d="M0 135l156 197q44 -47 123.5 -85t142.5 -38q71 0 107 19.5t36 74.5q0 24 -23 42t-59.5 31t-80.5 26.5t-88.5 33.5t-81 46.5t-59.5 71t-23 101.5q0 177 118 276t305 99q68 0 129 -13.5t100 -32t68.5 -37.5t42.5 -33l13 -13l-140 -192q-41 44 -105 71t-116 27 q-59 0 -93 -17.5t-34 -68.5q0 -19 18 -34.5t47.5 -26.5t67.5 -24.5t77 -27t77 -36t67.5 -49.5t47.5 -69.5t18 -93.5q0 -83 -27.5 -149.5t-72.5 -109.5t-106 -71.5t-125.5 -40.5t-133.5 -12q-116 0 -219.5 39t-173.5 119z" />
<glyph unicode="t" horiz-adv-x="710" d="M92 758l41 252h137l21 127q4 31 4 82l-4 63h317q6 -23 6 -68q0 -43 -8 -92l-16 -112h217l-43 -252h-215q-6 -35 -25 -130.5t-29 -165.5t-10 -132q0 -43 20.5 -60.5t63.5 -17.5q53 0 99 18l-25 -260q-139 -33 -231 -33q-258 0 -258 242q0 80 11.5 167.5t34 207.5t29.5 164 h-137z" />
<glyph unicode="u" horiz-adv-x="1150" d="M106 262q0 63 13 139l71 455q7 41 7 90l-4 64h317q6 -23 6 -68q0 -47 -8 -96l-64 -400q-6 -37 -6 -71q0 -125 117 -125q86 0 134.5 64.5t62.5 158.5l84 537h319l-137 -863q-6 -44 -6 -75q0 -20 1.5 -38t2.5 -26l2 -8h-307q-9 25 -9 72v39q-53 -62 -135 -98t-166 -36 q-295 0 -295 285z" />
<glyph unicode="v" horiz-adv-x="1085" d="M106 1010h334l119 -633l318 633h327l-559 -1010h-297z" />
<glyph unicode="w" horiz-adv-x="1634" d="M121 1010h321l70 -637l287 637h260l84 -637l270 637h322l-478 -1010h-301l-92 612l-284 -612h-299z" />
<glyph unicode="x" horiz-adv-x="1122" d="M-66 0l474 526l-273 484h361l131 -301l227 301h360l-426 -484l308 -526h-363l-166 334l-270 -334h-363z" />
<glyph unicode="y" horiz-adv-x="1081" d="M-31 -338l103 246q67 -27 114 -27q26 0 46 7.5t36 26t24.5 32t23.5 43.5t22 43l-232 977h334l117 -643l320 643h327l-606 -1104q-26 -46 -42.5 -73.5t-44 -67t-53.5 -62.5t-60.5 -46t-75.5 -33.5t-89 -10.5q-163 0 -264 49z" />
<glyph unicode="z" horiz-adv-x="985" d="M-12 0l30 190l578 568h-465l39 250h870l-28 -185l-570 -559h504l-41 -264h-917z" />
<glyph unicode="{" horiz-adv-x="663" d="M51 520l33 211q52 0 85.5 28t49.5 76t24.5 110t15 131t15.5 138t31 131.5t56.5 110.5t97.5 76.5t149 28.5h176l-24 -162h-35.5h-33.5t-28.5 -1t-27 -3.5t-21.5 -6.5t-20.5 -10.5t-15.5 -16.5t-14.5 -23t-10 -30t-8.5 -38l-60 -375q-8 -53 -20.5 -92t-34.5 -75t-57.5 -60 t-85.5 -37l-2 -13q67 -18 96 -60t29 -114q0 -86 -37 -257t-37 -257q0 -24 9.5 -40t20 -24.5t34 -12.5t36 -4.5t42 0.5t36.5 1l-27 -159h-174q-116 0 -174.5 44.5t-58.5 155.5q0 87 36 260.5t36 260.5q0 108 -101 108z" />
<glyph unicode="|" horiz-adv-x="684" d="M190 -301v1939h222v-1939h-222z" />
<glyph unicode="}" horiz-adv-x="663" d="M-10 -309l24 159h28q41 -1 59.5 0t44.5 7.5t38.5 20t24.5 39.5t18 65l60 374q17 109 60.5 174t139.5 88v13q-66 18 -94 60.5t-28 113.5q0 86 35.5 257.5t35.5 256.5q0 24 -9 40.5t-20 24.5t-33.5 12t-36 4.5t-41 -0.5t-36.5 -1l25 162h176q116 0 174.5 -45.5t58.5 -157.5 q0 -87 -35.5 -259.5t-35.5 -258.5q0 -112 100 -109l-33 -211q-52 0 -86 -28.5t-50 -76.5t-25 -110t-15 -130.5t-15.5 -137.5t-31 -131t-56 -110t-97 -76.5t-148.5 -28.5h-176z" />
<glyph unicode="~" horiz-adv-x="1435" d="M111 639q63 93 153 152t193 59q21 0 40.5 -1.5t37.5 -5t32.5 -6.5t31.5 -9t26.5 -9.5t25.5 -11.5t21.5 -10.5t21 -11t17.5 -9.5q120 -61 188 -61q53 0 107.5 36.5t93.5 92.5l143 -174q-63 -93 -153 -152t-193 -59q-19 0 -37 1.5t-33 3.5t-31.5 6t-27.5 6.5t-26.5 9t-23 9 t-22.5 10l-19 9.5t-18 9.5t-16 8.5q-39 20 -59.5 29.5t-59 21t-69.5 11.5q-53 0 -107.5 -36.5t-93.5 -92.5z" />
<glyph unicode="&#xa1;" horiz-adv-x="647" d="M49 -403l182 978h277l-127 -978h-332zM223 819q0 94 62.5 152.5t156.5 58.5q71 0 116.5 -36t45.5 -105q0 -94 -62 -153.5t-155 -59.5q-71 0 -117.5 37t-46.5 106z" />
<glyph unicode="&#xa2;" d="M213 524q0 253 158 426.5t409 198.5l25 162h164l-27 -164q54 -6 133 -32.5t101 -57.5l-111 -250q-20 28 -71 51.5t-93 30.5l-82 -524q48 5 111.5 27.5t93.5 51.5l31 -237q-37 -38 -125.5 -69t-153.5 -36l-24 -163h-164l26 161q-183 17 -292 130t-109 294zM524 575 q0 -71 34 -123t99 -73l80 502q-97 -28 -155 -115.5t-58 -190.5z" />
<glyph unicode="&#xa3;" d="M72 0l41 246h227q71 101 90 336h-207l31 192h192q-1 15 -6 57t-7.5 72t-2.5 58q0 215 130.5 344t350.5 129q225 0 340 -148l-141 -192q-46 51 -94.5 77.5t-110.5 26.5q-99 0 -145.5 -65t-46.5 -168q0 -49 18 -191h287l-29 -192h-274q-23 -236 -90 -336h514l-39 -246 h-1028z" />
<glyph unicode="&#xa4;" d="M129 467l31 192h100q4 37 16 111h-98l29 193h131q78 214 240 342.5t385 128.5q87 0 182.5 -25t154.5 -72l-112 -262q-99 105 -246 105q-208 0 -278 -217h376l-30 -193h-414q-8 -37 -16 -111h411l-30 -192h-377q-3 -101 52 -160t157 -59q145 0 303 123l57 -236 q-98 -84 -198 -121t-230 -37q-223 0 -340.5 131.5t-128.5 358.5h-127z" />
<glyph unicode="&#xa5;" d="M121 332l31 194h354q0 3 4 22t4 27q0 19 -10 64h-334l29 195h227l-233 579h350l168 -551l342 551h352l-418 -579h225l-30 -195h-336q-35 -60 -35 -113h352l-30 -194h-355l-51 -332h-305l53 332h-354z" />
<glyph unicode="&#xa6;" horiz-adv-x="684" d="M190 0v647h222v-647h-222zM190 991v647h222v-647h-222z" />
<glyph unicode="&#xa7;" horiz-adv-x="1316" d="M100 -152l199 162q27 -78 104.5 -127t163.5 -49q77 0 133 36.5t56 109.5q0 42 -29 76.5t-76 59.5t-103.5 49t-112.5 52.5t-103 64t-76 90t-29 122.5q0 112 60 203.5t166 146.5q-37 32 -56.5 83.5t-19.5 104.5q0 94 39.5 172t106 127t151.5 76t178 27q289 0 403 -207 l-170 -158q-39 67 -106.5 108.5t-144.5 41.5q-70 0 -120 -34.5t-50 -101.5q0 -37 28.5 -67.5t74.5 -54t101.5 -47.5t111 -54t101.5 -66.5t74.5 -93t28.5 -125.5q0 -112 -63 -203t-160 -132q43 -30 65.5 -89.5t22.5 -117.5q0 -102 -44 -184.5t-117.5 -133.5t-165.5 -78.5 t-192 -27.5q-328 0 -430 239zM487 571q0 -74 93 -120l235 -107q47 17 73.5 61.5t26.5 96.5q0 85 -90 127l-235 106q-47 -14 -75 -63.5t-28 -100.5z" />
<glyph unicode="&#xa8;" horiz-adv-x="829" d="M254 1239q0 66 46 114t112 48q52 0 84 -30.5t32 -80.5q0 -67 -46 -114.5t-113 -47.5q-50 0 -82.5 30.5t-32.5 80.5zM612 1239q0 66 46 114t112 48q51 0 83 -30t32 -81q0 -66 -46 -114t-112 -48q-51 0 -83 30t-32 81z" />
<glyph unicode="&#xa9;" horiz-adv-x="1574" d="M18 707q0 151 56.5 286t153.5 231.5t231.5 153t285.5 56.5q202 0 369.5 -95.5t264 -262.5t96.5 -369t-96.5 -369t-264 -262.5t-369.5 -95.5q-151 0 -285.5 56.5t-231.5 153t-153.5 231.5t-56.5 286zM127 707q0 -171 81.5 -313.5t223.5 -224t313 -81.5q129 0 244 48 t197 130.5t130 197.5t48 243t-48 243t-130 197t-197 130t-244 48q-171 0 -313 -81.5t-223.5 -223.5t-81.5 -313zM338 707q0 194 125.5 316t316.5 122q112 0 189 -36.5t116 -80.5l-73 -135q-30 34 -88.5 65t-139.5 31q-113 0 -189.5 -72.5t-76.5 -205.5q0 -132 76.5 -205.5 t189.5 -73.5q142 0 238 96l74 -133q-26 -28 -60.5 -52.5t-105 -49.5t-150.5 -25q-191 0 -316.5 122.5t-125.5 316.5z" />
<glyph unicode="&#xaa;" horiz-adv-x="745" d="M109 553q0 63 28.5 107.5t59.5 66t98.5 34.5t98.5 15t106 3q20 1 30 1q2 8 2 27q0 72 -104 72q-46 0 -102 -15.5t-95 -40.5l-34 138q133 65 278 65q266 0 266 -213q0 -60 -9.5 -128.5t-26.5 -154t-23 -127.5h-201l4 64q-81 -74 -184 -74q-80 0 -136 41t-56 119zM328 582 q0 -29 20 -42.5t51 -13.5q43 0 99 45l16 99q-9 -1 -35 -1.5t-42 -1.5t-39 -6t-36.5 -13.5t-23.5 -25.5t-10 -40z" />
<glyph unicode="&#xab;" horiz-adv-x="1130" d="M158 504l387 444l137 -112l-285 -332l181 -332l-175 -111zM555 504l387 444l137 -112l-284 -332l180 -332l-174 -111z" />
<glyph unicode="&#xac;" horiz-adv-x="1437" d="M115 780v240h1124v-684h-240v444h-884z" />
<glyph unicode="&#xad;" horiz-adv-x="671" d="M82 422l41 256h553l-41 -256h-553z" />
<glyph unicode="&#xae;" horiz-adv-x="1574" d="M18 707q0 151 56.5 286t153.5 231.5t231.5 153t285.5 56.5q202 0 369.5 -95.5t264 -262.5t96.5 -369t-96.5 -369t-264 -262.5t-369.5 -95.5q-151 0 -285.5 56.5t-231.5 153t-153.5 231.5t-56.5 286zM127 707q0 -171 81.5 -313.5t223.5 -224t313 -81.5q129 0 244 48 t197 130.5t130 197.5t48 243t-48 243t-130 197t-197 130t-244 48q-171 0 -313 -81.5t-223.5 -223.5t-81.5 -313zM463 281v852h301q141 0 223 -68t82 -188q0 -57 -17 -102.5t-45 -72.5t-55.5 -42t-56.5 -23l211 -356h-207l-178 333h-84v-333h-174zM637 756h98q71 0 112.5 25 t41.5 91q0 68 -41.5 93.5t-112.5 25.5h-98v-235z" />
<glyph unicode="&#xaf;" horiz-adv-x="829" d="M244 1188l24 158h629l-27 -158h-626z" />
<glyph unicode="&#xb0;" horiz-adv-x="882" d="M66 1176q0 140 98 234.5t237 94.5q138 0 236 -94.5t98 -234.5q0 -138 -98 -233t-236 -95q-139 0 -237 95t-98 233zM219 1176q0 -75 52.5 -130t129.5 -55q76 0 130.5 55.5t54.5 129.5q0 75 -54.5 129.5t-130.5 54.5q-77 0 -129.5 -54t-52.5 -130z" />
<glyph unicode="&#xb1;" horiz-adv-x="1435" d="M115 109v239h1124v-239h-1124zM115 774v240h440v352h246v-352h438v-240h-438v-354h-246v354h-440z" />
<glyph unicode="&#xb2;" horiz-adv-x="823" d="M158 733l331 266q83 68 111 104q41 51 41 95q0 39 -29 57.5t-71 18.5q-120 0 -228 -129l-77 145q12 39 55 73t97 55t107.5 32.5t92.5 11.5q52 0 99.5 -12t88.5 -36t65.5 -66.5t24.5 -98.5q0 -50 -21.5 -101t-50.5 -90.5t-77.5 -86t-84.5 -74.5t-90.5 -69.5t-76.5 -59.5 h358l-30 -184h-633z" />
<glyph unicode="&#xb3;" horiz-adv-x="823" d="M160 741l139 131q22 -54 71.5 -86t108.5 -32q57 0 101.5 30.5t44.5 85.5q0 20 -6.5 35t-19.5 23.5t-26 14t-34 8t-34.5 3t-35 0.5h-29.5l27 164h11q32 0 49.5 0.5t47 6t45.5 15.5t29 31.5t13 51.5q0 34 -28.5 49.5t-66.5 15.5q-113 0 -209 -100l-69 141q124 133 319 133 q48 0 95 -12t87.5 -35t65.5 -62.5t25 -90.5q0 -73 -38.5 -131t-105.5 -89q52 -20 80.5 -62.5t28.5 -98.5q0 -70 -34.5 -130t-89 -99t-121 -61t-132.5 -22q-233 0 -309 172z" />
<glyph unicode="&#xb4;" horiz-adv-x="829" d="M330 1116l207 297h272l-250 -297h-229z" />
<glyph unicode="&#xb5;" horiz-adv-x="1155" d="M0 -371l217 1379h320l-86 -551q-9 -56 -9 -74q0 -131 119 -131q87 0 133 58.5t60 150.5l88 547h317l-160 -1010h-305l13 108q-43 -46 -109.5 -76t-128.5 -30q-72 0 -100 33l-54 -404h-315z" />
<glyph unicode="&#xb6;" horiz-adv-x="1316" d="M174 856q0 255 148.5 406t406.5 151h653l-34 -217h-88l-248 -1567h-213l248 1567h-181l-248 -1567h-212l137 869q-169 5 -269 98t-100 260z" />
<glyph unicode="&#xb7;" horiz-adv-x="833" d="M279 563q0 90 62.5 148.5t152.5 58.5q69 0 114 -37.5t45 -105.5q0 -89 -62 -147t-153 -58q-69 0 -114 36.5t-45 104.5z" />
<glyph unicode="&#xb8;" horiz-adv-x="843" d="M131 -303l240 303h202l-198 -303h-244z" />
<glyph unicode="&#xb9;" horiz-adv-x="823" d="M360 1276l27 166h383l-137 -864h-227l112 698h-158z" />
<glyph unicode="&#xba;" horiz-adv-x="837" d="M147 653q0 162 111 267.5t279 105.5q125 0 206.5 -68.5t81.5 -191.5q0 -162 -111 -267.5t-278 -105.5q-125 0 -207 68.5t-82 191.5zM360 678q0 -50 27 -82.5t76 -32.5q68 0 108.5 57t40.5 128q0 48 -27 80t-75 32q-68 0 -109 -56t-41 -126z" />
<glyph unicode="&#xbb;" horiz-adv-x="1130" d="M119 174l284 330l-180 334l174 110l244 -444l-385 -443zM516 174l285 330l-180 334l174 110l243 -444l-385 -443z" />
<glyph unicode="&#xbc;" horiz-adv-x="1878" d="M281 1247l26 166h383l-133 -835h-227l106 669h-155zM311 37l1071 1413l123 -86l-1069 -1413zM965 166l22 149l516 559h238l-84 -532h115l-27 -176h-117l-26 -166h-226l25 166h-436zM1212 342h222l45 295z" />
<glyph unicode="&#xbd;" horiz-adv-x="1878" d="M268 1247l27 166h383l-135 -852h-228l109 686h-156zM293 37l1071 1413l123 -86l-1069 -1413zM1073 143l316 250q86 69 117 106q44 54 44 103q0 39 -28.5 59.5t-69.5 20.5q-100 0 -227 -123l-70 160q44 67 150.5 109t197.5 42q71 0 130.5 -20.5t101 -71t41.5 -123.5 q0 -51 -20.5 -101.5t-47.5 -88t-75 -82.5t-81 -71t-88.5 -67.5t-77.5 -58.5h355l-31 -186h-629z" />
<glyph unicode="&#xbe;" horiz-adv-x="1878" d="M158 741l141 131q22 -54 71.5 -86t108.5 -32q57 0 101.5 30.5t44.5 83.5q0 18 -6 32t-14 22.5t-22.5 15t-26 9.5t-30.5 4.5t-30 1.5t-30.5 -0.5t-25.5 -0.5l27 166h14q32 0 49.5 0.5t46.5 6t44.5 15.5t28 31.5t12.5 51.5q0 34 -28.5 49.5t-66.5 15.5q-109 0 -209 -100 l-69 141q124 133 319 133q48 0 95 -12t87.5 -35t65.5 -63.5t25 -91.5q0 -72 -38.5 -129.5t-105.5 -88.5q52 -20 80.5 -63t28.5 -98q0 -70 -34.5 -130.5t-89 -100t-121 -61.5t-132.5 -22q-231 0 -311 174zM410 37l1071 1415l125 -88l-1071 -1413zM965 166l22 149l516 559h238 l-84 -532h115l-27 -176h-117l-26 -166h-226l25 166h-436zM1212 342h222l45 295z" />
<glyph unicode="&#xbf;" horiz-adv-x="1060" d="M51 -113q0 64 18 121.5t45.5 101.5t71.5 88.5t85 76t98 69.5q63 39 84 62q14 14 24 38.5t13.5 39.5t8 53t5.5 41h270l-18 -138q-12 -86 -59 -151t-104 -103t-112.5 -70.5t-93 -72.5t-37.5 -90q0 -42 28.5 -68t63 -33.5t76.5 -7.5q158 0 297 125l55 -233 q-85 -81 -202.5 -120.5t-245.5 -39.5q-96 0 -178.5 33.5t-137.5 106t-55 171.5zM494 821q0 93 62 152t155 59q71 0 117 -37t46 -106q0 -93 -63 -152t-156 -59q-71 0 -116 36.5t-45 106.5z" />
<glyph unicode="&#xc0;" horiz-adv-x="1349" d="M-53 0l739 1415h332l289 -1415h-351l-51 283h-481l-141 -283h-336zM541 547h331l-88 497zM606 1794h275l110 -299h-227z" />
<glyph unicode="&#xc1;" horiz-adv-x="1349" d="M-53 0l739 1415h332l289 -1415h-351l-51 283h-481l-141 -283h-336zM541 547h331l-88 497zM737 1495l205 299h275l-252 -299h-228z" />
<glyph unicode="&#xc2;" horiz-adv-x="1349" d="M-53 0l739 1415h332l289 -1415h-351l-51 283h-481l-141 -283h-336zM541 547h331l-88 497zM543 1495l219 299h301l123 -299h-217l-76 180l-133 -180h-217z" />
<glyph unicode="&#xc3;" horiz-adv-x="1349" d="M-53 0l739 1415h332l289 -1415h-351l-51 283h-481l-141 -283h-336zM514 1538q18 94 94 166t168 72q46 0 85 -14.5t61.5 -32t49.5 -32t52 -14.5q35 0 61.5 25.5t40.5 60.5l136 -20q-18 -94 -94.5 -167t-168.5 -73q-46 0 -85 15t-61 32.5t-49 32.5t-52 15q-35 0 -62 -25.5 t-41 -60.5zM541 547h331l-88 497z" />
<glyph unicode="&#xc4;" horiz-adv-x="1349" d="M-53 0l739 1415h332l289 -1415h-351l-51 283h-481l-141 -283h-336zM541 547h331l-88 497zM573 1612q0 67 46.5 115.5t113.5 48.5q51 0 83 -31t32 -82q0 -67 -46.5 -115.5t-111.5 -48.5q-51 0 -84 31t-33 82zM926 1612q0 67 46 115.5t113 48.5q50 0 82.5 -31.5t32.5 -81.5 q0 -67 -46.5 -115.5t-113.5 -48.5q-51 0 -82.5 31t-31.5 82z" />
<glyph unicode="&#xc5;" horiz-adv-x="1349" d="M-53 0l739 1415h332l289 -1415h-351l-51 283h-481l-141 -283h-336zM541 547h331l-88 497zM659 1626q0 108 78.5 179t186.5 71q86 0 142 -45.5t56 -128.5q0 -108 -78 -179t-186 -71q-84 0 -141.5 46t-57.5 128zM791 1645q0 -36 24 -57t62 -21q49 0 81.5 33t32.5 83 q0 37 -23.5 57.5t-60.5 20.5q-51 0 -83.5 -33t-32.5 -83z" />
<glyph unicode="&#xc6;" horiz-adv-x="1843" d="M-119 0l1049 1413h991l-43 -268h-506l-43 -279h473l-43 -268h-473l-51 -328h522l-43 -270h-844l48 285h-474l-198 -285h-365zM629 547h329l95 602h-2z" />
<glyph unicode="&#xc7;" horiz-adv-x="1290" d="M113 561q0 181 62 341.5t171 278t266.5 185.5t339.5 68q126 0 252.5 -39.5t192.5 -122.5l-146 -277q-40 64 -141 106t-184 42q-106 0 -197 -42.5t-153 -114t-97 -166t-35 -197.5q0 -157 93.5 -249.5t250.5 -92.5q109 0 211 38.5t179 110.5l71 -266q-172 -161 -438 -184 l-166 -287h-293l205 299q-205 44 -324.5 193t-119.5 376z" />
<glyph unicode="&#xc8;" horiz-adv-x="1103" d="M82 0l223 1413h883l-43 -268h-561l-45 -283h530l-43 -268h-530l-52 -322h580l-43 -272h-899zM541 1794h274l111 -299h-230z" />
<glyph unicode="&#xc9;" horiz-adv-x="1103" d="M82 0l223 1413h883l-43 -268h-561l-45 -283h530l-43 -268h-530l-52 -322h580l-43 -272h-899zM582 1495l204 299h275l-252 -299h-227z" />
<glyph unicode="&#xca;" horiz-adv-x="1103" d="M82 0l223 1413h883l-43 -268h-561l-45 -283h530l-43 -268h-530l-52 -322h580l-43 -272h-899zM438 1495l217 299h301l123 -299h-215l-76 180l-135 -180h-215z" />
<glyph unicode="&#xcb;" horiz-adv-x="1103" d="M82 0l223 1413h883l-43 -268h-561l-45 -283h530l-43 -268h-530l-52 -322h580l-43 -272h-899zM469 1612q0 67 46.5 115.5t113.5 48.5q50 0 82 -31t32 -82q0 -67 -46 -115.5t-113 -48.5q-51 0 -83 31t-32 82zM823 1612q0 67 46.5 115.5t113.5 48.5q50 0 82.5 -31.5 t32.5 -81.5q0 -67 -46.5 -115.5t-113.5 -48.5q-50 0 -82.5 31.5t-32.5 81.5z" />
<glyph unicode="&#xcc;" horiz-adv-x="571" d="M82 0l223 1413h322l-224 -1413h-321zM252 1794h274l111 -299h-227z" />
<glyph unicode="&#xcd;" horiz-adv-x="571" d="M82 0l223 1413h322l-224 -1413h-321zM319 1495l207 299h273l-252 -299h-228z" />
<glyph unicode="&#xce;" horiz-adv-x="571" d="M82 0l223 1413h322l-224 -1413h-321zM158 1495l217 299h301l123 -299h-215l-76 180l-135 -180h-215z" />
<glyph unicode="&#xcf;" horiz-adv-x="571" d="M82 0l223 1413h322l-224 -1413h-321zM188 1616q0 67 46.5 115.5t111.5 48.5q51 0 83 -31t32 -82q0 -67 -45.5 -115.5t-112.5 -48.5q-51 0 -83 31t-32 82zM543 1616q0 67 46 115.5t111 48.5q51 0 84 -31t33 -82q0 -67 -46.5 -115.5t-113.5 -48.5q-51 0 -82.5 31t-31.5 82z " />
<glyph unicode="&#xd0;" horiz-adv-x="1396" d="M66 618l34 220h113l92 575h461q110 0 205.5 -20.5t177 -64t139.5 -108.5t90.5 -158t32.5 -208q0 -256 -107.5 -450t-304.5 -299t-456 -105h-461l96 618h-112zM446 285h160q145 0 255 70t166 186.5t56 261.5q0 161 -90.5 246.5t-251.5 85.5h-159l-47 -297h268l-35 -213 h-268z" />
<glyph unicode="&#xd1;" horiz-adv-x="1488" d="M82 0l223 1413h344l428 -942q18 142 40.5 292.5t56.5 358.5t47 291h315l-225 -1413h-328l-442 950q-31 -240 -146 -950h-313zM582 1538q20 95 95.5 166.5t168.5 71.5q45 0 84 -14.5t61.5 -32t50 -32t52.5 -14.5q34 0 60 25t42 61l135 -20q-18 -94 -94 -167t-170 -73 q-45 0 -84 15t-61.5 32.5t-50 32.5t-52.5 15q-34 0 -60 -25t-42 -61z" />
<glyph unicode="&#xd2;" horiz-adv-x="1564" d="M113 563q0 183 63 344.5t173.5 277.5t269.5 183.5t342 67.5q180 0 319 -69.5t218 -204t79 -316.5q0 -244 -107 -442.5t-302 -313.5t-439 -115q-179 0 -318 69t-218.5 203.5t-79.5 315.5zM444 623q0 -156 89.5 -252.5t242.5 -96.5q138 0 248.5 77t167.5 197t57 255 q0 156 -89.5 252t-244.5 96q-104 0 -193.5 -45t-149.5 -118.5t-94 -168.5t-34 -196zM700 1794h275l110 -299h-227z" />
<glyph unicode="&#xd3;" horiz-adv-x="1564" d="M113 563q0 183 63 344.5t173.5 277.5t269.5 183.5t342 67.5q180 0 319 -69.5t218 -204t79 -316.5q0 -244 -107 -442.5t-302 -313.5t-439 -115q-179 0 -318 69t-218.5 203.5t-79.5 315.5zM444 623q0 -156 89.5 -252.5t242.5 -96.5q138 0 248.5 77t167.5 197t57 255 q0 156 -89.5 252t-244.5 96q-104 0 -193.5 -45t-149.5 -118.5t-94 -168.5t-34 -196zM856 1495l205 299h274l-252 -299h-227z" />
<glyph unicode="&#xd4;" horiz-adv-x="1564" d="M113 563q0 183 63 344.5t173.5 277.5t269.5 183.5t342 67.5q180 0 319 -69.5t218 -204t79 -316.5q0 -244 -107 -442.5t-302 -313.5t-439 -115q-179 0 -318 69t-218.5 203.5t-79.5 315.5zM444 623q0 -156 89.5 -252.5t242.5 -96.5q138 0 248.5 77t167.5 197t57 255 q0 156 -89.5 252t-244.5 96q-104 0 -193.5 -45t-149.5 -118.5t-94 -168.5t-34 -196zM649 1495l219 299h301l123 -299h-217l-76 180l-135 -180h-215z" />
<glyph unicode="&#xd5;" horiz-adv-x="1564" d="M113 563q0 183 63 344.5t173.5 277.5t269.5 183.5t342 67.5q180 0 319 -69.5t218 -204t79 -316.5q0 -244 -107 -442.5t-302 -313.5t-439 -115q-179 0 -318 69t-218.5 203.5t-79.5 315.5zM444 623q0 -156 89.5 -252.5t242.5 -96.5q138 0 248.5 77t167.5 197t57 255 q0 156 -89.5 252t-244.5 96q-104 0 -193.5 -45t-149.5 -118.5t-94 -168.5t-34 -196zM621 1538q18 94 94 166t168 72q46 0 85 -14.5t61 -32t49 -32t52 -14.5q35 0 62 25.5t41 60.5l135 -20q-18 -94 -94 -167t-168 -73q-46 0 -85 15t-61.5 32.5t-50.5 32.5t-53 15 q-34 0 -60 -25.5t-40 -60.5z" />
<glyph unicode="&#xd6;" horiz-adv-x="1564" d="M113 563q0 183 63 344.5t173.5 277.5t269.5 183.5t342 67.5q180 0 319 -69.5t218 -204t79 -316.5q0 -244 -107 -442.5t-302 -313.5t-439 -115q-179 0 -318 69t-218.5 203.5t-79.5 315.5zM444 623q0 -156 89.5 -252.5t242.5 -96.5q138 0 248.5 77t167.5 197t57 255 q0 156 -89.5 252t-244.5 96q-104 0 -193.5 -45t-149.5 -118.5t-94 -168.5t-34 -196zM680 1612q0 67 46.5 115.5t111.5 48.5q51 0 82.5 -31t31.5 -82q0 -67 -45 -115.5t-112 -48.5q-51 0 -83 31t-32 82zM1034 1612q0 67 46.5 115.5t111.5 48.5q51 0 83 -31t32 -82 q0 -67 -45.5 -115.5t-112.5 -48.5q-51 0 -83 31t-32 82z" />
<glyph unicode="&#xd7;" horiz-adv-x="1435" d="M127 330l379 377l-379 374l172 176l379 -376l377 376l174 -176l-379 -374l379 -377l-174 -176l-377 376l-379 -376z" />
<glyph unicode="&#xd8;" horiz-adv-x="1564" d="M29 96l166 148q-82 138 -82 319q0 183 63 344.5t173.5 277.5t269.5 183.5t342 67.5q246 0 411 -127l172 153l121 -145l-168 -152q80 -132 80 -319q0 -182 -63.5 -343t-174 -277t-269 -183.5t-341.5 -67.5q-245 0 -410 127l-169 -151zM444 623q0 -78 19 -136l661 598 q-87 66 -209 66q-104 0 -193.5 -45t-149.5 -118.5t-94 -168.5t-34 -196zM575 334q80 -60 201 -60q138 0 248.5 77t167.5 197t57 255q0 70 -16 125z" />
<glyph unicode="&#xd9;" horiz-adv-x="1378" d="M150 410q0 84 16 182l129 821h323l-131 -823q-10 -65 -10 -117q0 -97 54.5 -150t152.5 -53q73 0 127 25t87.5 71.5t52.5 100t30 123.5l131 823h324l-131 -821q-98 -615 -668 -615q-223 0 -355 107.5t-132 325.5zM631 1794h274l111 -299h-228z" />
<glyph unicode="&#xda;" horiz-adv-x="1378" d="M150 410q0 84 16 182l129 821h323l-131 -823q-10 -65 -10 -117q0 -97 54.5 -150t152.5 -53q73 0 127 25t87.5 71.5t52.5 100t30 123.5l131 823h324l-131 -821q-98 -615 -668 -615q-223 0 -355 107.5t-132 325.5zM739 1495l205 299h275l-252 -299h-228z" />
<glyph unicode="&#xdb;" horiz-adv-x="1378" d="M150 410q0 84 16 182l129 821h323l-131 -823q-10 -65 -10 -117q0 -97 54.5 -150t152.5 -53q73 0 127 25t87.5 71.5t52.5 100t30 123.5l131 823h324l-131 -821q-98 -615 -668 -615q-223 0 -355 107.5t-132 325.5zM557 1495l217 299h301l123 -299h-215l-76 180l-135 -180 h-215z" />
<glyph unicode="&#xdc;" horiz-adv-x="1378" d="M150 410q0 84 16 182l129 821h323l-131 -823q-10 -65 -10 -117q0 -97 54.5 -150t152.5 -53q73 0 127 25t87.5 71.5t52.5 100t30 123.5l131 823h324l-131 -821q-98 -615 -668 -615q-223 0 -355 107.5t-132 325.5zM586 1612q0 67 46 115.5t113 48.5q51 0 83 -31t32 -82 q0 -67 -46.5 -115.5t-113.5 -48.5q-50 0 -82 31t-32 82zM942 1612q0 67 45.5 115.5t112.5 48.5q51 0 82.5 -31t31.5 -82q0 -67 -46 -115.5t-111 -48.5q-51 0 -83 31t-32 82z" />
<glyph unicode="&#xdd;" horiz-adv-x="1230" d="M158 1413h358l189 -557l364 557h356l-606 -842l-90 -571h-321l90 571zM662 1495l204 299h275l-252 -299h-227z" />
<glyph unicode="&#xde;" horiz-adv-x="1144" d="M82 0l223 1413h322l-37 -227h2q60 0 91 -0.5t88.5 -3.5t90.5 -9t82 -18t77.5 -29.5t62 -44.5t51.5 -62t30.5 -82.5t12.5 -105.5q0 -253 -158.5 -394.5t-417.5 -141.5h-153l-46 -295h-321zM489 553h105q112 0 181 57.5t69 167.5q0 150 -191 150h-104z" />
<glyph unicode="&#xdf;" horiz-adv-x="1210" d="M-14 -371q31 62 45 148l178 1116q21 133 60.5 229t106.5 168t169 108t241 36q58 0 112 -9.5t105.5 -31.5t89 -55t60.5 -83.5t23 -113.5q0 -122 -60.5 -212t-157.5 -116v-2q107 -26 166.5 -111.5t59.5 -199.5q0 -164 -78.5 -283t-208.5 -177t-295 -58q-70 0 -135 18 l53 240q44 -13 84 -13q119 0 193.5 71t74.5 189q0 48 -16.5 82t-40.5 52t-63 28t-70.5 12.5t-77.5 2.5l37 231q42 0 75.5 4t67 16t55.5 32t36 54t14 80q0 62 -42 95.5t-104 33.5q-42 0 -74.5 -13t-53.5 -33t-36 -52t-22.5 -62.5t-13.5 -70.5l-191 -1190q-7 -45 -19.5 -85 t-20.5 -58l-9 -17h-317z" />
<glyph unicode="&#xe0;" horiz-adv-x="1251" d="M76 395q0 118 38 230.5t106.5 203t174.5 146t232 55.5q88 0 166.5 -34t117.5 -103q2 19 17 117h319l-137 -863q-6 -43 -6 -75q0 -20 1.5 -38t2.5 -26l2 -8h-297q-8 25 -8 72q0 36 2 59h-2q-64 -73 -154.5 -113.5t-189.5 -40.5q-181 0 -283 116.5t-102 301.5zM391 1413 h275l110 -297h-227zM406 453q0 -90 49.5 -146.5t138.5 -56.5q120 0 195 95.5t75 219.5q0 90 -49.5 146.5t-138.5 56.5q-120 0 -195 -95.5t-75 -219.5z" />
<glyph unicode="&#xe1;" horiz-adv-x="1251" d="M76 395q0 118 38 230.5t106.5 203t174.5 146t232 55.5q88 0 166.5 -34t117.5 -103q2 19 17 117h319l-137 -863q-6 -43 -6 -75q0 -20 1.5 -38t2.5 -26l2 -8h-297q-8 25 -8 72q0 36 2 59h-2q-64 -73 -154.5 -113.5t-189.5 -40.5q-181 0 -283 116.5t-102 301.5zM406 453 q0 -90 49.5 -146.5t138.5 -56.5q120 0 195 95.5t75 219.5q0 90 -49.5 146.5t-138.5 56.5q-120 0 -195 -95.5t-75 -219.5zM512 1116l207 297h272l-250 -297h-229z" />
<glyph unicode="&#xe2;" horiz-adv-x="1251" d="M76 395q0 118 38 230.5t106.5 203t174.5 146t232 55.5q88 0 166.5 -34t117.5 -103q2 19 17 117h319l-137 -863q-6 -43 -6 -75q0 -20 1.5 -38t2.5 -26l2 -8h-297q-8 25 -8 72q0 36 2 59h-2q-64 -73 -154.5 -113.5t-189.5 -40.5q-181 0 -283 116.5t-102 301.5zM344 1116 l217 297h301l125 -297h-217l-76 184l-135 -184h-215zM406 453q0 -90 49.5 -146.5t138.5 -56.5q120 0 195 95.5t75 219.5q0 90 -49.5 146.5t-138.5 56.5q-120 0 -195 -95.5t-75 -219.5z" />
<glyph unicode="&#xe3;" horiz-adv-x="1251" d="M76 395q0 118 38 230.5t106.5 203t174.5 146t232 55.5q88 0 166.5 -34t117.5 -103q2 19 17 117h319l-137 -863q-6 -43 -6 -75q0 -20 1.5 -38t2.5 -26l2 -8h-297q-8 25 -8 72q0 36 2 59h-2q-64 -73 -154.5 -113.5t-189.5 -40.5q-181 0 -283 116.5t-102 301.5zM330 1163 q18 94 93.5 165t168.5 71q45 0 84 -14.5t61.5 -31.5t50 -31.5t52.5 -14.5q66 0 102 86l135 -21q-18 -94 -93.5 -164.5t-168.5 -70.5q-45 0 -84 14.5t-61.5 31.5t-50 31.5t-52.5 14.5q-35 0 -61.5 -25.5t-40.5 -60.5zM406 453q0 -90 49.5 -146.5t138.5 -56.5q120 0 195 95.5 t75 219.5q0 90 -49.5 146.5t-138.5 56.5q-120 0 -195 -95.5t-75 -219.5z" />
<glyph unicode="&#xe4;" horiz-adv-x="1251" d="M76 395q0 118 38 230.5t106.5 203t174.5 146t232 55.5q88 0 166.5 -34t117.5 -103q2 19 17 117h319l-137 -863q-6 -43 -6 -75q0 -20 1.5 -38t2.5 -26l2 -8h-297q-8 25 -8 72q0 36 2 59h-2q-64 -73 -154.5 -113.5t-189.5 -40.5q-181 0 -283 116.5t-102 301.5zM356 1239 q0 66 46 114t112 48q52 0 84.5 -30.5t32.5 -80.5q0 -67 -46.5 -114.5t-113.5 -47.5q-50 0 -82.5 30.5t-32.5 80.5zM406 453q0 -90 49.5 -146.5t138.5 -56.5q120 0 195 95.5t75 219.5q0 90 -49.5 146.5t-138.5 56.5q-120 0 -195 -95.5t-75 -219.5zM715 1239q0 66 45.5 114 t111.5 48q51 0 83 -30t32 -81q0 -66 -46 -114t-112 -48q-51 0 -82.5 30t-31.5 81z" />
<glyph unicode="&#xe5;" horiz-adv-x="1251" d="M76 395q0 118 38 230.5t106.5 203t174.5 146t232 55.5q88 0 166.5 -34t117.5 -103q2 19 17 117h319l-137 -863q-6 -43 -6 -75q0 -20 1.5 -38t2.5 -26l2 -8h-297q-8 25 -8 72q0 36 2 59h-2q-64 -73 -154.5 -113.5t-189.5 -40.5q-181 0 -283 116.5t-102 301.5zM406 453 q0 -90 49.5 -146.5t138.5 -56.5q120 0 195 95.5t75 219.5q0 90 -49.5 146.5t-138.5 56.5q-120 0 -195 -95.5t-75 -219.5zM446 1280q0 108 78.5 178t188.5 70q83 0 139.5 -45t56.5 -127q0 -108 -77.5 -178t-186.5 -70q-85 0 -142 45t-57 127zM580 1298q0 -36 23 -56.5 t61 -20.5q49 0 81.5 33t32.5 83q0 36 -24 57t-60 21q-49 0 -81.5 -33.5t-32.5 -83.5z" />
<glyph unicode="&#xe6;" horiz-adv-x="1734" d="M37 238q0 79 25 142.5t66 105.5t99 72.5t119.5 46t131.5 22t131 5.5t122 -7q4 22 4 47q0 47 -31 77t-70.5 40t-86.5 10q-76 0 -160 -24.5t-154 -63.5l-49 213q210 104 434 104q111 0 191 -26.5t135 -102.5q175 129 385 129q64 0 120.5 -8.5t110 -29.5t91.5 -52t61 -80 t23 -110q0 -160 -126.5 -259.5t-332.5 -99.5q-135 0 -272 35v-14q0 -96 59 -144.5t156 -48.5q146 0 307 100l102 -174q-109 -86 -224.5 -126t-266.5 -40q-256 0 -373 164q-94 -87 -192 -125.5t-226 -38.5q-132 0 -220.5 66.5t-88.5 194.5zM360 291q0 -50 37 -75.5t88 -25.5 q54 0 114 28.5t99 78.5q-8 41 -8 100q0 38 2 56q-37 2 -80.5 3.5t-88 -8.5t-81 -26.5t-59.5 -50.5t-23 -80zM1030 602q80 -6 146 -6q46 0 90 6.5t90 21.5t74 47t28 77q0 44 -35 65t-88 21q-102 0 -195.5 -76.5t-109.5 -155.5z" />
<glyph unicode="&#xe7;" horiz-adv-x="958" d="M76 406q0 127 46.5 241.5t126.5 198t194 133t243 49.5q89 0 186 -26.5t148 -79.5l-111 -254q-36 48 -97 72t-128 24q-123 0 -204 -92t-81 -217q0 -97 57.5 -152t153.5 -55q66 0 139 25.5t125 68.5l29 -252q-49 -39 -125.5 -66.5t-146.5 -37.5l-187 -283h-274l229 287 q-151 32 -237 145.5t-86 270.5z" />
<glyph unicode="&#xe8;" horiz-adv-x="1120" d="M76 397q0 136 54 255.5t143 200.5t204.5 128t237.5 47q80 0 149.5 -14.5t128.5 -46t93 -87.5t34 -132q0 -160 -126 -259.5t-332 -99.5q-136 0 -273 35v-14q0 -96 59 -144.5t156 -48.5q146 0 307 100l103 -174q-109 -86 -225 -126t-267 -40q-201 0 -323.5 110t-122.5 310z M416 602q80 -6 145 -6q46 0 90 6.5t90 21.5t74.5 47t28.5 77q0 44 -35 65t-88 21q-102 0 -195.5 -76.5t-109.5 -155.5zM420 1413h274l111 -297h-227z" />
<glyph unicode="&#xe9;" horiz-adv-x="1120" d="M76 397q0 136 54 255.5t143 200.5t204.5 128t237.5 47q80 0 149.5 -14.5t128.5 -46t93 -87.5t34 -132q0 -160 -126 -259.5t-332 -99.5q-136 0 -273 35v-14q0 -96 59 -144.5t156 -48.5q146 0 307 100l103 -174q-109 -86 -225 -126t-267 -40q-201 0 -323.5 110t-122.5 310z M416 602q80 -6 145 -6q46 0 90 6.5t90 21.5t74.5 47t28.5 77q0 44 -35 65t-88 21q-102 0 -195.5 -76.5t-109.5 -155.5zM469 1116l207 297h272l-250 -297h-229z" />
<glyph unicode="&#xea;" horiz-adv-x="1120" d="M76 397q0 136 54 255.5t143 200.5t204.5 128t237.5 47q80 0 149.5 -14.5t128.5 -46t93 -87.5t34 -132q0 -160 -126 -259.5t-332 -99.5q-136 0 -273 35v-14q0 -96 59 -144.5t156 -48.5q146 0 307 100l103 -174q-109 -86 -225 -126t-267 -40q-201 0 -323.5 110t-122.5 310z M365 1116l217 297h301l125 -297h-217l-76 184l-135 -184h-215zM416 602q80 -6 145 -6q46 0 90 6.5t90 21.5t74.5 47t28.5 77q0 44 -35 65t-88 21q-102 0 -195.5 -76.5t-109.5 -155.5z" />
<glyph unicode="&#xeb;" horiz-adv-x="1120" d="M76 397q0 136 54 255.5t143 200.5t204.5 128t237.5 47q80 0 149.5 -14.5t128.5 -46t93 -87.5t34 -132q0 -160 -126 -259.5t-332 -99.5q-136 0 -273 35v-14q0 -96 59 -144.5t156 -48.5q146 0 307 100l103 -174q-109 -86 -225 -126t-267 -40q-201 0 -323.5 110t-122.5 310z M350 1239q0 66 46 114t112 48q52 0 84.5 -30.5t32.5 -80.5q0 -67 -46.5 -114.5t-113.5 -47.5q-50 0 -82.5 30.5t-32.5 80.5zM416 602q80 -6 145 -6q46 0 90 6.5t90 21.5t74.5 47t28.5 77q0 44 -35 65t-88 21q-102 0 -195.5 -76.5t-109.5 -155.5zM709 1239q0 66 45.5 114 t111.5 48q51 0 83 -30t32 -81q0 -66 -46 -114t-112 -48q-51 0 -82.5 30t-31.5 81z" />
<glyph unicode="&#xec;" horiz-adv-x="536" d="M84 72q0 41 8 88l109 702q6 46 6 84l-4 64h317q6 -23 6 -68q0 -43 -8 -92l-108 -703q-7 -51 -7 -75q0 -20 1.5 -38t3.5 -26l2 -8h-318q-8 25 -8 72zM178 1413h273l110 -301h-227z" />
<glyph unicode="&#xed;" horiz-adv-x="536" d="M84 72q0 41 8 88l109 702q6 46 6 84l-4 64h317q6 -23 6 -68q0 -43 -8 -92l-108 -703q-7 -51 -7 -75q0 -20 1.5 -38t3.5 -26l2 -8h-318q-8 25 -8 72zM240 1112l206 301h275l-252 -301h-229z" />
<glyph unicode="&#xee;" horiz-adv-x="536" d="M80 1112l219 301h301l123 -301h-217l-76 188l-133 -188h-217zM84 72q0 41 8 88l109 702q6 46 6 84l-4 64h317q6 -23 6 -68q0 -43 -8 -92l-108 -703q-7 -51 -7 -75q0 -20 1.5 -38t3.5 -26l2 -8h-318q-8 25 -8 72z" />
<glyph unicode="&#xef;" horiz-adv-x="536" d="M84 72q0 41 8 88l109 702q6 46 6 84l-4 64h317q6 -23 6 -68q0 -43 -8 -92l-108 -703q-7 -51 -7 -75q0 -20 1.5 -38t3.5 -26l2 -8h-318q-8 25 -8 72zM113 1237q0 67 46 115.5t111 48.5q51 0 83 -31t32 -82q0 -67 -45.5 -115.5t-112.5 -48.5q-51 0 -82.5 31t-31.5 82z M465 1237q0 67 45.5 115.5t112.5 48.5q51 0 82.5 -31t31.5 -82q0 -67 -46 -115.5t-111 -48.5q-51 0 -83 31t-32 82z" />
<glyph unicode="&#xf0;" horiz-adv-x="1183" d="M76 401q0 89 27.5 176.5t78.5 161t119.5 130t156 88.5t181.5 32q119 0 178 -51q-48 115 -166 236l-241 -132l-52 136l185 100q-86 73 -158 121l242 127q80 -49 166 -125l256 139l53 -137l-201 -107q268 -281 268 -637q0 -144 -41.5 -267.5t-120 -216t-199.5 -145.5 t-271 -53q-202 0 -331.5 113t-129.5 311zM401 449q0 -88 47.5 -143.5t133.5 -55.5q114 0 187 93.5t73 211.5q0 88 -47.5 143.5t-132.5 55.5q-77 0 -138.5 -46t-92 -115t-30.5 -144z" />
<glyph unicode="&#xf1;" horiz-adv-x="1165" d="M61 0l136 858q6 46 6 88l-4 64h315q6 -23 6 -68q0 -32 -6 -76h2q57 76 136.5 119t170.5 43q151 0 225 -73t74 -222q0 -69 -12 -139l-72 -447q-6 -44 -6 -75q0 -20 1.5 -38t2.5 -26l2 -8h-315q-8 25 -8 72q0 41 8 88l57 366q11 64 11 101q0 65 -28.5 98t-92.5 33 q-171 0 -209 -258l-80 -500h-320zM365 1161q18 94 94 166t170 72q45 0 83.5 -14.5t61 -32.5t50.5 -32.5t53 -14.5q34 0 60.5 25.5t41.5 62.5l133 -21q-18 -95 -93 -167t-169 -72q-45 0 -84 14.5t-61.5 32.5t-50 32.5t-52.5 14.5q-65 0 -102 -88z" />
<glyph unicode="&#xf2;" horiz-adv-x="1183" d="M76 403q0 132 48 247.5t131.5 198.5t200.5 131t251 48q204 0 334 -113.5t130 -314.5q0 -176 -81 -318.5t-225 -223.5t-324 -81q-133 0 -237 48t-166 146t-62 232zM401 451q0 -90 47.5 -145.5t135.5 -55.5q119 0 191.5 96t72.5 219q0 90 -47 145.5t-135 55.5 q-119 0 -192 -96t-73 -219zM473 1413h272l111 -301h-229z" />
<glyph unicode="&#xf3;" horiz-adv-x="1183" d="M76 403q0 132 48 247.5t131.5 198.5t200.5 131t251 48q204 0 334 -113.5t130 -314.5q0 -176 -81 -318.5t-225 -223.5t-324 -81q-133 0 -237 48t-166 146t-62 232zM401 451q0 -90 47.5 -145.5t135.5 -55.5q119 0 191.5 96t72.5 219q0 90 -47 145.5t-135 55.5 q-119 0 -192 -96t-73 -219zM586 1112l207 301h272l-252 -301h-227z" />
<glyph unicode="&#xf4;" horiz-adv-x="1183" d="M76 403q0 132 48 247.5t131.5 198.5t200.5 131t251 48q204 0 334 -113.5t130 -314.5q0 -176 -81 -318.5t-225 -223.5t-324 -81q-133 0 -237 48t-166 146t-62 232zM399 1112l219 301h302l122 -301h-217l-75 188l-134 -188h-217zM401 451q0 -90 47.5 -145.5t135.5 -55.5 q119 0 191.5 96t72.5 219q0 90 -47 145.5t-135 55.5q-119 0 -192 -96t-73 -219z" />
<glyph unicode="&#xf5;" horiz-adv-x="1183" d="M76 403q0 132 48 247.5t131.5 198.5t200.5 131t251 48q204 0 334 -113.5t130 -314.5q0 -176 -81 -318.5t-225 -223.5t-324 -81q-133 0 -237 48t-166 146t-62 232zM371 1161q18 94 94 166t170 72q45 0 83.5 -14.5t61 -32.5t50.5 -32.5t53 -14.5q34 0 60.5 25.5t41.5 62.5 l133 -21q-18 -95 -93 -167t-169 -72q-45 0 -84 14.5t-61.5 32.5t-50 32.5t-52.5 14.5q-65 0 -102 -88zM401 451q0 -90 47.5 -145.5t135.5 -55.5q119 0 191.5 96t72.5 219q0 90 -47 145.5t-135 55.5q-119 0 -192 -96t-73 -219z" />
<glyph unicode="&#xf6;" horiz-adv-x="1183" d="M76 403q0 132 48 247.5t131.5 198.5t200.5 131t251 48q204 0 334 -113.5t130 -314.5q0 -176 -81 -318.5t-225 -223.5t-324 -81q-133 0 -237 48t-166 146t-62 232zM401 451q0 -90 47.5 -145.5t135.5 -55.5q119 0 191.5 96t72.5 219q0 90 -47 145.5t-135 55.5 q-119 0 -192 -96t-73 -219zM432 1237q0 67 46.5 115.5t111.5 48.5q51 0 84 -31t33 -82q0 -67 -46.5 -115.5t-113.5 -48.5q-51 0 -83 31t-32 82zM784 1237q0 67 45.5 115.5t112.5 48.5q51 0 83 -31t32 -82q0 -67 -46.5 -115.5t-111.5 -48.5q-51 0 -83 31t-32 82z" />
<glyph unicode="&#xf7;" horiz-adv-x="1435" d="M115 588v237h1124v-237h-1124zM504 311q0 72 51 123t123 51q71 0 121.5 -51t50.5 -123q0 -71 -51 -121.5t-121 -50.5q-72 0 -123 50.5t-51 121.5zM504 1102q0 71 51 121.5t123 50.5q70 0 121 -51t51 -121q0 -72 -50.5 -123t-121.5 -51q-72 0 -123 51t-51 123z" />
<glyph unicode="&#xf8;" horiz-adv-x="1183" d="M12 78l119 104q-55 96 -55 221q0 132 48 247.5t131.5 198.5t200.5 131t251 48q175 0 297 -84l126 111l103 -125l-119 -105q57 -95 57 -225q0 -176 -81 -318.5t-225 -223.5t-324 -81q-181 0 -301 86l-123 -110zM397 455q0 -31 4 -45l377 331q-44 31 -110 31 q-120 0 -195.5 -97t-75.5 -220zM477 272q43 -28 107 -28q120 0 196 97t76 220q0 17 -4 41z" />
<glyph unicode="&#xf9;" horiz-adv-x="1150" d="M106 262q0 63 13 139l71 455q7 41 7 90l-4 64h317q6 -23 6 -68q0 -47 -8 -96l-64 -400q-6 -37 -6 -71q0 -125 117 -125q86 0 134.5 64.5t62.5 158.5l84 537h319l-137 -863q-6 -44 -6 -75q0 -20 1.5 -38t2.5 -26l2 -8h-307q-9 25 -9 72v39q-53 -62 -135 -98t-166 -36 q-295 0 -295 285zM451 1413h274l111 -301h-228z" />
<glyph unicode="&#xfa;" horiz-adv-x="1150" d="M106 262q0 63 13 139l71 455q7 41 7 90l-4 64h317q6 -23 6 -68q0 -47 -8 -96l-64 -400q-6 -37 -6 -71q0 -125 117 -125q86 0 134.5 64.5t62.5 158.5l84 537h319l-137 -863q-6 -44 -6 -75q0 -20 1.5 -38t2.5 -26l2 -8h-307q-9 25 -9 72v39q-53 -62 -135 -98t-166 -36 q-295 0 -295 285zM561 1112l205 301h274l-252 -301h-227z" />
<glyph unicode="&#xfb;" horiz-adv-x="1150" d="M106 262q0 63 13 139l71 455q7 41 7 90l-4 64h317q6 -23 6 -68q0 -47 -8 -96l-64 -400q-6 -37 -6 -71q0 -125 117 -125q86 0 134.5 64.5t62.5 158.5l84 537h319l-137 -863q-6 -44 -6 -75q0 -20 1.5 -38t2.5 -26l2 -8h-307q-9 25 -9 72v39q-53 -62 -135 -98t-166 -36 q-295 0 -295 285zM381 1112l217 301h301l123 -301h-215l-76 188l-135 -188h-215z" />
<glyph unicode="&#xfc;" horiz-adv-x="1150" d="M106 262q0 63 13 139l71 455q7 41 7 90l-4 64h317q6 -23 6 -68q0 -47 -8 -96l-64 -400q-6 -37 -6 -71q0 -125 117 -125q86 0 134.5 64.5t62.5 158.5l84 537h319l-137 -863q-6 -44 -6 -75q0 -20 1.5 -38t2.5 -26l2 -8h-307q-9 25 -9 72v39q-53 -62 -135 -98t-166 -36 q-295 0 -295 285zM414 1237q0 67 45 115.5t112 48.5q51 0 83 -31t32 -82q0 -67 -46.5 -115.5t-111.5 -48.5q-51 0 -82.5 31t-31.5 82zM764 1237q0 67 46.5 115.5t113.5 48.5q50 0 82 -31t32 -82q0 -67 -46 -115.5t-113 -48.5q-50 0 -82.5 31.5t-32.5 81.5z" />
<glyph unicode="&#xfd;" horiz-adv-x="1081" d="M-31 -338l103 246q67 -27 114 -27q26 0 46 7.5t36 26t24.5 32t23.5 43.5t22 43l-232 977h334l117 -643l320 643h327l-606 -1104q-26 -46 -42.5 -73.5t-44 -67t-53.5 -62.5t-60.5 -46t-75.5 -33.5t-89 -10.5q-163 0 -264 49zM537 1112l206 301h275l-252 -301h-229z" />
<glyph unicode="&#xfe;" horiz-adv-x="1251" d="M27 -299q0 41 8 88l235 1477q6 46 6 84l-4 63h314q6 -22 6 -67q0 -44 -8 -93l-56 -360q58 66 145.5 100.5t182.5 34.5q181 0 282 -115t101 -299q0 -119 -38 -232.5t-106.5 -204.5t-175 -146.5t-233.5 -55.5q-93 0 -167 35.5t-113 110.5l-54 -344q-6 -43 -6 -76 q0 -20 1.5 -38t2.5 -26l2 -8h-317q-8 25 -8 72zM453 453q0 -90 49.5 -146.5t138.5 -56.5q120 0 195 95.5t75 219.5q0 90 -49.5 145.5t-138.5 55.5q-120 0 -195 -94.5t-75 -218.5z" />
<glyph unicode="&#xff;" horiz-adv-x="1081" d="M-31 -338l103 246q67 -27 114 -27q26 0 46 7.5t36 26t24.5 32t23.5 43.5t22 43l-232 977h334l117 -643l320 643h327l-606 -1104q-26 -46 -42.5 -73.5t-44 -67t-53.5 -62.5t-60.5 -46t-75.5 -33.5t-89 -10.5q-163 0 -264 49zM387 1241q0 67 46.5 115.5t113.5 48.5 q50 0 82.5 -31.5t32.5 -81.5q0 -67 -46.5 -115.5t-113.5 -48.5q-51 0 -83 31t-32 82zM739 1241q0 67 45.5 115.5t112.5 48.5q51 0 83 -31t32 -82q0 -67 -46.5 -115.5t-111.5 -48.5q-51 0 -83 31t-32 82z" />
<glyph unicode="&#x152;" horiz-adv-x="1964" d="M113 563q0 181 62.5 341.5t172.5 278t268 185.5t340 68q160 0 267 -60l6 37h811l-43 -268h-510l-45 -283h479l-43 -268h-477l-51 -324h526l-43 -270h-829l6 35q-123 -60 -283 -60q-274 0 -444 158.5t-170 429.5zM444 621q0 -154 88 -250.5t242 -96.5q157 0 268 78 l113 721q-83 78 -244 78q-103 0 -192 -45.5t-148.5 -120t-93 -169.5t-33.5 -195z" />
<glyph unicode="&#x153;" horiz-adv-x="1882" d="M76 403q0 132 48 247.5t131.5 198.5t200.5 131t251 48q236 0 364 -143q183 143 406 143q80 0 149.5 -14.5t128.5 -46t93 -87.5t34 -132q0 -160 -126.5 -259.5t-332.5 -99.5q-135 0 -272 35v-14q0 -96 59 -144.5t156 -48.5q146 0 307 100l103 -174q-109 -86 -225 -126 t-267 -40q-223 0 -346 132q-167 -132 -397 -132q-133 0 -237 48t-166 146t-62 232zM401 451q0 -90 47.5 -145.5t135.5 -55.5q119 0 191.5 96t72.5 219q0 90 -47 145.5t-135 55.5q-119 0 -192 -96t-73 -219zM1178 602q79 -6 145 -6q46 0 90 6.5t90 21.5t74.5 47t28.5 77 q0 44 -35 65t-88 21q-102 0 -195.5 -76.5t-109.5 -155.5z" />
<glyph unicode="&#x178;" horiz-adv-x="1230" d="M158 1413h358l189 -557l364 557h356l-606 -842l-90 -571h-321l90 571zM516 1620q0 67 45.5 115.5t112.5 48.5q51 0 82.5 -31t31.5 -82q0 -67 -46 -115.5t-111 -48.5q-51 0 -83 31t-32 82zM870 1620q0 67 46.5 115.5t111.5 48.5q51 0 83 -31t32 -82q0 -67 -45.5 -115.5 t-112.5 -48.5q-51 0 -83 31t-32 82z" />
<glyph unicode="&#x2c6;" horiz-adv-x="829" d="M225 1116l217 297h301l125 -297h-217l-76 184l-135 -184h-215z" />
<glyph unicode="&#x2dc;" horiz-adv-x="829" d="M197 1163q18 94 93.5 165t168.5 71q45 0 84 -14.5t61.5 -31.5t50 -31.5t52.5 -14.5q66 0 102 86l135 -21q-18 -94 -93.5 -164.5t-168.5 -70.5q-45 0 -84 14.5t-61.5 31.5t-50 31.5t-52.5 14.5q-35 0 -61.5 -25.5t-40.5 -60.5z" />
<glyph unicode="&#x2000;" horiz-adv-x="938" />
<glyph unicode="&#x2001;" horiz-adv-x="1876" />
<glyph unicode="&#x2002;" horiz-adv-x="938" />
<glyph unicode="&#x2003;" horiz-adv-x="1876" />
<glyph unicode="&#x2004;" horiz-adv-x="625" />
<glyph unicode="&#x2005;" horiz-adv-x="469" />
<glyph unicode="&#x2006;" horiz-adv-x="312" />
<glyph unicode="&#x2007;" horiz-adv-x="312" />
<glyph unicode="&#x2008;" horiz-adv-x="234" />
<glyph unicode="&#x2009;" horiz-adv-x="375" />
<glyph unicode="&#x200a;" horiz-adv-x="104" />
<glyph unicode="&#x2010;" horiz-adv-x="671" d="M82 422l41 256h553l-41 -256h-553z" />
<glyph unicode="&#x2011;" horiz-adv-x="671" d="M82 422l41 256h553l-41 -256h-553z" />
<glyph unicode="&#x2012;" horiz-adv-x="671" d="M82 422l41 256h553l-41 -256h-553z" />
<glyph unicode="&#x2013;" horiz-adv-x="956" d="M25 426l38 246h951l-39 -246h-950z" />
<glyph unicode="&#x2014;" horiz-adv-x="1837" d="M55 426l39 246h1761l-38 -246h-1762z" />
<glyph unicode="&#x2018;" horiz-adv-x="702" d="M229 903l283 510h260l-235 -510h-308z" />
<glyph unicode="&#x2019;" horiz-adv-x="702" d="M207 903l237 510h308l-283 -510h-262z" />
<glyph unicode="&#x201a;" horiz-adv-x="702" d="M27 -242l235 510h307l-282 -510h-260z" />
<glyph unicode="&#x201c;" horiz-adv-x="1130" d="M236 903l282 510h248l-236 -510h-294zM659 903l283 510h248l-236 -510h-295z" />
<glyph unicode="&#x201d;" horiz-adv-x="1130" d="M213 903l238 510h294l-282 -510h-250zM637 903l237 510h295l-282 -510h-250z" />
<glyph unicode="&#x201e;" horiz-adv-x="1130" d="M33 -242l235 510h295l-282 -510h-248zM457 -242l235 510h295l-282 -510h-248z" />
<glyph unicode="&#x2022;" horiz-adv-x="1234" d="M236 748q0 140 101 241t241 101q138 0 239 -101.5t101 -240.5t-101 -240.5t-239 -101.5q-140 0 -241 101t-101 241z" />
<glyph unicode="&#x2026;" horiz-adv-x="1929" d="M131 121q0 91 62.5 149t154.5 58q70 0 115 -36.5t45 -105.5q0 -91 -62 -147.5t-153 -56.5q-70 0 -116 36t-46 103zM752 121q0 91 61.5 149t153.5 58q70 0 114.5 -36.5t44.5 -105.5q0 -91 -61.5 -147.5t-153.5 -56.5q-70 0 -114.5 35.5t-44.5 103.5zM1370 121 q0 91 61.5 149t153.5 58q70 0 115 -36.5t45 -105.5q0 -91 -61.5 -147.5t-153.5 -56.5q-70 0 -115 36t-45 103z" />
<glyph unicode="&#x202f;" horiz-adv-x="375" />
<glyph unicode="&#x2039;" horiz-adv-x="727" d="M160 504l385 444l139 -114l-283 -330l181 -328l-179 -117z" />
<glyph unicode="&#x203a;" horiz-adv-x="727" d="M113 176l284 328l-180 330l176 114l246 -444l-385 -445z" />
<glyph unicode="&#x205f;" horiz-adv-x="469" />
<glyph unicode="&#x20ac;" d="M129 467l31 192h100q4 37 16 111h-98l29 193h131q78 214 240 342.5t385 128.5q87 0 182.5 -25t154.5 -72l-112 -262q-99 105 -246 105q-208 0 -278 -217h376l-30 -193h-414q-8 -37 -16 -111h411l-30 -192h-377q-3 -101 52 -160t157 -59q145 0 303 123l57 -236 q-98 -84 -198 -121t-230 -37q-223 0 -340.5 131.5t-128.5 358.5h-127z" />
<glyph unicode="&#x2122;" horiz-adv-x="1816" d="M55 1266v147h621v-147h-221v-691h-176v691h-224zM719 575l57 838h240l170 -577h6l170 577h240l55 -838h-178l-33 603h-4l-180 -603h-148l-178 603h-6l-31 -603h-180z" />
<glyph unicode="&#xe000;" horiz-adv-x="1013" d="M0 0v1014h1014v-1014h-1014z" />
</font>
</defs>
</svg>
