<?xml version="1.0" standalone="no"?>
<!DOCTYPE svg PUBLIC "-//W3C//DTD SVG 1.1//EN" "http://www.w3.org/Graphics/SVG/1.1/DTD/svg11.dtd" >
<svg xmlns="http://www.w3.org/2000/svg">
<metadata></metadata>
<defs>
<font id="aleoitalic" horiz-adv-x="737" >
<font-face units-per-em="2048" ascent="1649" descent="-399" />
<missing-glyph horiz-adv-x="425" />
<glyph unicode="&#xfb01;" horiz-adv-x="1240" d="M1156 1411q36 -28 42 -70t-12 -78t-51 -62t-69 -26q-74 0 -109.5 51t-5.5 119q-94 31 -186.5 14.5t-150.5 -64.5q-93 -77 -111 -226l-6 -52h627l-107 -868l114 -23q31 -6 26 -38l-11 -88h-330l109 885h-439q-19 -160 -58.5 -480.5t-59.5 -481.5q-17 -137 -98.5 -216.5 t-222.5 -79.5q-71 0 -123 21l20 98q6 20 35 20h40q82 0 119.5 38.5t47.5 119.5l117 958l-113 13q-47 12 -43 47l9 75h164l7 57q25 203 162.5 315.5t363.5 116.5q191 0 303 -95zM497 1017z" />
<glyph unicode="&#xfb02;" horiz-adv-x="1336" d="M1242 123q16 0 22 -3.5t7 -16.5l-3 -98q-56 -20 -128 -20q-134 0 -200 78t-49 218l132 1078h-208q-136 0 -216 -77.5t-96 -210.5l-6 -54h300l-16 -132h-295q-19 -160 -58.5 -480.5t-59.5 -481.5q-17 -137 -98.5 -216.5t-222.5 -79.5q-71 0 -123 21l20 98q6 20 35 20h40 q82 0 119.5 38.5t47.5 119.5l117 958l-113 13q-47 12 -43 47l9 75h164l6 55q23 188 152 305.5t326 117.5l314 -12h103l-148 -1205q-9 -83 20 -119t108 -36h41z" />
<glyph horiz-adv-x="0" />
<glyph unicode="&#xd;" horiz-adv-x="365" />
<glyph horiz-adv-x="365" />
<glyph horiz-adv-x="365" />
<glyph unicode=" "  horiz-adv-x="425" />
<glyph unicode="&#x09;" horiz-adv-x="425" />
<glyph unicode="&#xa0;" horiz-adv-x="425" />
<glyph unicode="!" horiz-adv-x="460" d="M408 1467l-72 -585q-10 -81 -12 -90q-11 -65 -16 -89q-12 -60 -19 -91q-4 -17 -12 -51.5t-11 -48.5h-124q0 38 2 100q3 89 3 91q4 60 7 89q1 6 4 39t5 51l72 585h173zM25 113q3 23 16 50q11 23 31 41q17 16 44 27t51 11q25 0 49 -11q25 -12 38 -27q15 -18 22 -41t4 -50 t-16 -51q-11 -21 -32 -40q-20 -19 -45 -28q-24 -9 -51 -9q-26 0 -49 9q-21 8 -37 28q-14 17 -22 40q-6 20 -3 51z" />
<glyph unicode="&#x22;" horiz-adv-x="717" d="M320 1467l-36 -297l-36 -158q-8 -33 -24 -51t-48 -18q-27 0 -39 18q-14 20 -15 51l3 158l36 297h159zM661 1467l-36 -297l-36 -158q-7 -33 -24 -51t-48 -18q-27 0 -39 18q-14 20 -15 51l3 158l36 297h159z" />
<glyph unicode="#" horiz-adv-x="1164" d="M764 433l-139 -433h-83q-25 0 -38 17t-10 45q0 6 1 8l3 9l116 354h-253l-117 -363q-14 -38 -38 -54q-25 -16 -55 -16h-81l140 433h-149q-23 0 -35 12t-9 40q0 4 2 12l3 12l15 58h209l108 334h-238l23 76q8 28 29 44q18 14 60 14h162l119 367q11 31 34 48t55 17h81 l-139 -432h253l139 432h81q26 0 41 -15t12 -40q-2 -10 -3 -13l-119 -364h217l-23 -77q-9 -30 -29 -43q-22 -14 -60 -14h-141l-108 -334h184q25 0 36 -11t8 -42q0 -3 -2 -11q0 -2 -1 -5.5t-1 -5.5l-17 -59h-243zM397 567h253l107 334h-253z" />
<glyph unicode="$" horiz-adv-x="1056" d="M345 -12q-124 12 -219 61t-160 126l65 84q8 11 23 19q13 7 28 7q19 0 42 -20q16 -14 55 -44q32 -25 79 -49q48 -25 116 -32l104 544q-59 18 -135 49q-66 27 -115 70q-48 42 -74 110q-25 65 -13 165q9 74 47 146q39 73 100 127q61 53 149 90q86 35 193 40l29 147 q5 21 19 35q15 15 38 15h68l-40 -202q106 -13 179 -56q76 -44 127 -101l-53 -68q-24 -30 -50 -30q-17 0 -34 12q-16 11 -47 30q-32 19 -65 34q-38 17 -86 24l-94 -496q75 -24 139 -49q69 -27 120 -68q53 -43 80 -105q28 -65 16 -158q-12 -94 -52 -173t-107 -142 q-65 -61 -156 -100q-87 -38 -201 -44l-34 -181q-4 -18 -20 -34q-15 -15 -38 -15h-67zM800 417q6 53 -8 88q-15 37 -44 63q-30 27 -71 46q-42 20 -90 36l-98 -510q67 6 122 29t94 59q41 38 64 84q23 47 31 105zM315 1097q-6 -51 7 -86q14 -38 40 -64q27 -27 66 -48t84 -37 l88 462q-68 -6 -119 -27q-52 -21 -86 -51q-36 -32 -55 -69q-21 -42 -25 -80z" />
<glyph unicode="%" horiz-adv-x="1529" d="M735 1113q-10 -84 -46 -154t-85 -115q-53 -48 -113 -71q-63 -24 -127 -24q-70 0 -125 24q-54 23 -94 71q-38 45 -55 115q-17 68 -6 154q10 86 44 157q32 67 83 115q52 48 112 72q64 25 131 25t126 -25q54 -23 94 -72q39 -48 55 -115q16 -69 6 -157zM592 1113q9 68 0 115 t-30 77t-53 44q-30 13 -69 13q-40 0 -73 -13q-34 -13 -63 -44q-28 -30 -48 -77q-19 -44 -28 -115q-8 -66 0 -113t29 -76q21 -28 53 -42q30 -13 69 -13q40 0 73 13q34 14 63 42q29 30 49 76q21 50 28 113zM1287 1431q15 19 31 27q14 9 41 9h131l-1249 -1437q-14 -15 -27 -22 q-16 -8 -35 -8h-135zM1452 346q-10 -83 -46 -153t-85 -115q-52 -48 -112 -71q-61 -24 -127 -24q-70 0 -125 24q-54 23 -94 71q-38 45 -55 115q-16 67 -6 153t44 157t83 117q50 47 112 71q64 25 131 25q66 0 125 -25q57 -24 95 -71q36 -43 54 -117q16 -69 6 -157zM1310 346 q9 67 0 115t-30 78q-20 29 -53 43q-30 13 -70 13q-39 0 -72 -13q-35 -14 -63 -43q-28 -30 -48 -78q-19 -46 -28 -115q-8 -66 0 -113q7 -46 29 -75q21 -28 53 -42q30 -13 69 -13q40 0 73 13q34 14 63 42q30 30 49 75q21 50 28 113z" />
<glyph unicode="&#x26;" horiz-adv-x="1344" d="M746 1484q80 0 144 -26t107 -69t64 -100t18 -119l-116 -22q-4 -1 -10 -1q-14 0 -24 7q-11 8 -14 26q-5 28 -16 55q-12 29 -34 52q-22 24 -56 39q-33 15 -81 15q-52 0 -94 -16q-41 -15 -76 -46q-31 -26 -53 -68q-20 -36 -26 -86q-4 -35 0 -68q5 -33 18 -66q16 -39 36 -69 q23 -34 58 -74l369 -429q45 65 80 144q31 71 50 151q4 18 16 30t30 12h112q-16 -118 -66 -232q-48 -111 -130 -213l269 -311h-176q-30 0 -47 7t-37 30l-130 148q-109 -94 -239 -147q-132 -54 -283 -54q-82 0 -157 27q-73 26 -131 81q-56 53 -84 128q-29 78 -17 171 q9 70 41 136q31 63 81 118q49 54 112 97q64 44 137 74q-52 79 -73 154q-21 76 -11 154q9 71 45 141q34 65 92 114t134 77q75 28 168 28zM207 405q-8 -67 10 -117t54 -85q37 -36 85 -53q50 -18 102 -18q115 0 211 42q94 41 174 112l-379 437q-117 -59 -181 -140 q-64 -80 -76 -178z" />
<glyph unicode="'" horiz-adv-x="376" d="M320 1467l-36 -297l-36 -158q-8 -33 -24 -51t-48 -18q-27 0 -39 18q-14 20 -15 51l3 158l36 297h159z" />
<glyph unicode="(" horiz-adv-x="531" d="M219 644q-27 -220 4 -425q32 -208 115 -394q4 -11 6 -20q2 -8 0 -16q-1 -14 -10 -23q-10 -10 -21 -17l-87 -49q-64 120 -102 233q-38 112 -58 233q-18 111 -20 235q-1 107 15 243q15 124 45 243q32 127 77 235q48 116 116 232q67 116 159 234l75 -50q10 -7 16 -16 q6 -10 5 -24q-1 -13 -15 -35q-132 -188 -212 -393q-81 -207 -108 -426z" />
<glyph unicode=")" horiz-adv-x="534" d="M293 644q27 215 -4 426q-30 204 -115 393q-8 20 -6 35q2 16 10 24t21 16l87 50q66 -127 102 -234q38 -112 58 -232q18 -109 20 -235q1 -107 -15 -243q-15 -124 -45 -243q-31 -124 -77 -235q-48 -116 -116 -233q-65 -111 -159 -233l-75 49q-9 6 -16 17q-6 10 -5 23 q2 12 4 16q3 7 11 20q132 192 211 394q83 211 109 425z" />
<glyph unicode="*" horiz-adv-x="760" d="M313 884l25 201q4 23 7 37q4 15 14 34q-23 -24 -60 -46l-189 -101l-35 76l188 103q39 21 78 24q-19 1 -37 8t-34 18l-165 103l55 77l164 -102q35 -23 52 -53q-6 15 -8 37q-2 21 1 39l25 203h90l-25 -202q-4 -40 -23 -73q16 17 28 26q18 14 34 23l189 101l36 -77 l-189 -102q-17 -10 -37 -17q-24 -8 -36 -9q19 -2 34 -7q19 -7 33 -17l164 -104l-54 -76l-165 102q-23 16 -30 23q-14 13 -22 27q12 -33 7 -74l-25 -202h-90z" />
<glyph unicode="+" horiz-adv-x="1038" d="M658 1194l-53 -437h417l-17 -139h-417l-54 -440h-150l54 440h-414l17 139h414l54 437h149z" />
<glyph unicode="," horiz-adv-x="470" d="M105 126q3 25 14 44q13 22 29 37q17 16 42 25q27 10 50 10q32 0 54 -12q23 -12 36 -31t18 -46q5 -29 1 -57q-6 -47 -25 -95q-20 -51 -50 -99q-31 -50 -72 -95t-93 -85l-27 30q-12 12 -10 29q1 13 18 28q2 2 8 7.5t11.5 11t10.5 11.5q17 19 37 43q15 19 37 55q18 30 28 63 h-14q-26 0 -47 9q-20 8 -34 26q-12 15 -19 40q-6 23 -3 51z" />
<glyph unicode="-" d="M127 691h505l-19 -154h-505z" />
<glyph unicode="." horiz-adv-x="457" d="M83 113q3 23 16 50q11 21 32 41q18 17 43 27q27 11 52 11t49 -11t37 -27q15 -18 22 -41t4 -50t-16 -51q-11 -21 -32 -40t-44 -28q-24 -9 -52 -9q-26 0 -49 9q-21 8 -37 28q-13 15 -21 40q-7 22 -4 51z" />
<glyph unicode="/" horiz-adv-x="946" d="M161 -22q-17 -34 -49 -53q-28 -17 -60 -17h-77l804 1533q18 32 44 50q25 17 61 17h76z" />
<glyph unicode="0" horiz-adv-x="1223" d="M1140 733q-24 -194 -82 -333q-58 -140 -142 -233q-83 -92 -186 -137q-104 -45 -215 -45q-113 0 -204 45q-92 45 -152 137q-60 91 -84 233q-24 141 0 333q24 195 82 334t142 234q82 93 185 138q102 45 215 45q111 0 204 -45q92 -44 152 -138q61 -95 85 -234 q24 -141 0 -334zM951 733q20 162 6 282q-14 114 -53 184q-40 70 -98 100t-126 30t-134 -30t-122 -100q-54 -67 -97 -184q-42 -114 -63 -282q-21 -165 -7 -281q14 -114 53 -184q40 -71 97 -100q59 -30 127 -30q67 0 133 30q67 30 123 100q56 69 98 184t63 281z" />
<glyph unicode="1" horiz-adv-x="859" d="M774 118q28 -6 25 -36l-11 -82h-786l7 60l3 22q3 30 33 36l290 21l122 1001q6 43 15 91l-290 -224q-22 -16 -39 -16q-34 0 -46 23l-48 79l483 377h148l-163 -1331q241 -18 257 -21z" />
<glyph unicode="2" horiz-adv-x="1119" d="M262 148q96 25 167 25h402q24 114 25 118q4 15 18 25t29 10h99q-4 -33 -12.5 -99.5t-12.5 -100.5l-15 -126h-977l7 62q6 46 43 78l528 472q56 51 84.5 77.5t72.5 73t74 91.5t52 95q23 53 31.5 111t-5.5 123q-21 70 -79 107t-147 37q-165 0 -263 -131q-29 -40 -46 -88 q-22 -56 -75 -56q-7 0 -23 2l-93 16q39 145 128 244.5t223 142.5q84 27 179 27q146 0 243.5 -62t133.5 -175q23 -85 13 -169t-43 -154q-22 -45 -53.5 -91t-55.5 -76.5t-72.5 -78t-68 -65t-76.5 -69.5z" />
<glyph unicode="3" horiz-adv-x="1098" d="M652 1484q94 0 169 -27q76 -27 126 -76q52 -50 74 -118q23 -71 13 -155q-9 -68 -33 -124q-24 -55 -63 -97t-89 -70q-49 -27 -111 -46q138 -37 200 -127q62 -89 45 -223q-12 -99 -61 -182q-48 -80 -122 -138q-74 -57 -166 -87q-93 -30 -194 -30q-115 0 -196 29 q-78 28 -130 80q-50 50 -79 122q-30 74 -44 152l82 32q25 10 44 10q20 0 35 -9t21 -27l3 -9q0 -2 1 -5t2 -5q14 -39 26 -67q17 -39 47 -70q31 -33 80 -55q51 -23 125 -23q78 0 138 25q62 26 104 65q44 41 69 89q26 51 32 98q7 59 -3 108q-11 50 -47 85q-38 36 -108 57 q-67 20 -185 20l16 132q93 2 162 21q70 20 115 53q46 34 70 81q25 48 32 104q8 64 -6 111q-14 49 -45 78q-33 31 -77 46q-45 15 -101 15q-57 0 -105 -16q-45 -15 -89 -46q-37 -26 -69 -69q-29 -39 -48 -88q-12 -29 -30 -43q-17 -13 -43 -13h-11q-3 0 -13 2l-93 16 q27 102 77 178q49 75 120 129q69 53 154 80q84 27 179 27z" />
<glyph unicode="4" horiz-adv-x="1133" d="M891 529h222l-13 -104q-1 -15 -13 -28q-10 -11 -31 -11h-183l-47 -386h-161l48 386h-651q-20 0 -34 12t-15 29l-7 93l830 947h170zM805 1135q4 38 8 57q6 30 15 63l-623 -726h525z" />
<glyph unicode="5" horiz-adv-x="1070" d="M1028 1388q-4 -37 -33 -64q-28 -26 -86 -26h-460l-115 -385q122 25 215 25q115 0 198 -34q84 -34 135 -93q52 -60 73 -140q20 -79 8 -176q-15 -118 -67 -211q-53 -96 -131 -162t-181 -103q-98 -35 -212 -35q-70 0 -122 12q-57 13 -107 35q-45 20 -89 49q-36 24 -70 58 l64 78q21 27 53 27q21 0 44 -16q26 -18 58 -36q31 -17 82 -35q47 -16 117 -16q74 0 141 25q61 23 113 70q49 44 81 109q32 64 41 142q9 67 -5 124t-49 95q-37 40 -93 60q-58 21 -139 21q-56 0 -116 -9q-66 -10 -126 -29l-111 33l203 686h696z" />
<glyph unicode="6" horiz-adv-x="1072" d="M641 899q87 0 163 -29q74 -28 128 -85q51 -54 77 -137q25 -81 12 -186q-12 -102 -60 -189t-121 -151t-172 -102q-94 -36 -209 -36q-113 0 -196 35q-86 36 -141 100t-78 158q-22 93 -9 207q12 100 68 205q59 112 165 234l433 500q17 18 44 32q24 12 60 12h162l-588 -644 q59 37 122 56q68 20 140 20zM207 453q-9 -69 5 -129q14 -59 48 -101q35 -43 88 -65q55 -23 126 -23q73 0 136 24t110 65t78 100q30 57 39 125t-7 129q-14 56 -52 98q-37 41 -90 62q-57 22 -124 22q-74 0 -136 -25q-61 -25 -109 -68q-46 -42 -75 -98q-30 -58 -37 -116z" />
<glyph unicode="7" horiz-adv-x="1107" d="M110 1467h997l-10 -82q-6 -51 -35 -95l-758 -1225q-41 -65 -108 -65h-130l765 1210q38 57 69 88h-656q-28 -137 -33 -153q-12 -35 -46 -35h-99z" />
<glyph unicode="8" horiz-adv-x="1127" d="M475 -16q-109 0 -198 29q-87 28 -146 83q-58 53 -85 132q-27 78 -15 173q18 142 103 233q86 93 227 131q-112 44 -159 128q-49 87 -34 205q11 83 50 151q40 69 106 123q64 52 149 82t186 30q99 0 177 -30q80 -31 131 -82q53 -52 75 -123q23 -73 13 -151 q-15 -120 -85 -205q-70 -84 -190 -128q132 -39 195 -131t45 -233q-12 -98 -57 -173q-47 -79 -118 -132q-73 -55 -166 -83q-96 -29 -204 -29zM492 129q69 0 131 20q60 19 104 56t71 87q26 50 34 112q9 76 -9 130q-18 53 -57 88q-37 32 -91 49q-52 16 -114 16q-63 0 -118 -16 q-62 -18 -104 -49q-47 -35 -78 -88q-32 -55 -41 -130q-8 -62 7 -112t50 -87q35 -36 89 -56q55 -20 126 -20zM579 834q72 0 125 22q55 23 90 58q36 37 56 83q20 47 26 98q6 54 -5 96q-12 45 -40 79q-27 33 -77 53q-47 19 -113 19t-117 -19q-54 -20 -90 -53t-59 -79t-29 -96 q-7 -54 2 -98q9 -47 36 -83q26 -35 75 -58q47 -22 120 -22z" />
<glyph unicode="9" horiz-adv-x="1065" d="M431 602q-81 0 -154 28q-72 28 -121 81t-73 132q-23 76 -11 180q12 97 58 180q47 85 118 147q69 61 166 98q93 36 200 36q105 0 187 -35q83 -35 136 -97t76 -150q23 -90 10 -192q-7 -57 -27 -121q-20 -57 -48 -111q-25 -48 -67 -108q-32 -46 -85 -111l-421 -516 q-14 -18 -41 -31q-26 -12 -58 -12h-168l518 585q8 9 24.5 28t24.5 28q42 50 44 53q-58 -43 -136 -68q-74 -24 -152 -24zM850 1031q9 67 -7 125q-15 56 -49 94q-35 39 -85 60q-51 21 -116 21q-69 0 -126 -22q-61 -24 -103 -61q-44 -39 -72 -93t-36 -119q-9 -70 4 -124 q14 -56 46 -93t85 -57q52 -20 117 -20q74 0 134 24q62 25 104 64q43 40 70 93q27 52 34 108z" />
<glyph unicode=":" horiz-adv-x="489" d="M62 113q3 26 15 50q11 21 32 41q17 16 44 27t51 11q25 0 49 -11q25 -12 38 -27q15 -18 22 -41t4 -50t-16 -51q-10 -19 -33 -40q-21 -19 -44 -28q-24 -9 -51 -9t-49 9q-21 8 -37 28q-14 17 -22 40q-7 20 -3 51zM156 881q3 23 16 50q12 23 31 41q17 16 44 27t52 11t49 -11 t37 -27q15 -18 22 -41t4 -50t-16 -51q-11 -21 -32 -40q-20 -19 -45 -28q-24 -9 -51 -9t-49 9q-21 8 -37 28q-14 17 -22 40q-7 20 -3 51z" />
<glyph unicode=";" horiz-adv-x="495" d="M80 126q3 25 14 44q12 22 29 37q18 16 41 25q27 10 51 10q31 0 53 -12q23 -12 36 -31t18 -46q6 -32 2 -57q-6 -47 -25 -95q-20 -51 -50 -99q-29 -46 -73 -95q-41 -45 -93 -85l-27 30q-12 12 -10 29q1 13 18 28l30 30q26 28 38 43q11 14 36 55q18 30 28 63h-13 q-26 0 -47 9q-20 8 -34 26q-14 17 -20 40q-5 20 -2 51zM166 881q3 23 16 50q11 21 32 41q18 17 43 27q27 11 52 11t49 -11t37 -27q15 -18 22 -41t4 -50t-16 -51q-11 -21 -32 -40t-44 -28q-24 -9 -52 -9q-27 0 -49 9q-21 8 -37 28q-13 15 -21 40q-7 22 -4 51z" />
<glyph unicode="&#x3c;" horiz-adv-x="939" d="M53 727l843 411l-16 -130q-1 -15 -12 -31q-10 -12 -31 -23l-488 -233q-21 -11 -46 -19q-30 -9 -51 -14q17 -3 47 -13q18 -6 42 -19l431 -232q20 -11 26 -24q6 -12 4 -29l-16 -131l-742 411z" />
<glyph unicode="=" horiz-adv-x="1135" d="M117 588h880l-17 -138h-880zM159 931h880l-17 -138h-880z" />
<glyph unicode="&#x3e;" horiz-adv-x="931" d="M44 240l16 131q1 15 12 29q10 13 32 24l488 232q24 12 45 19q28 9 49 13q-20 5 -46 14q-22 8 -40 19l-431 233q-21 11 -26 23q-6 14 -5 31l16 130l741 -411l-9 -76z" />
<glyph unicode="?" horiz-adv-x="795" d="M50 1336q39 33 77 57q37 24 90 47q43 19 102 32q54 12 116 12q81 0 147 -24q68 -25 111 -66q45 -44 66 -105t12 -138q-9 -74 -40 -134q-31 -58 -70 -99q-42 -43 -87 -74q-18 -12 -49.5 -34t-35.5 -25q-34 -24 -69 -55q-31 -28 -38 -61l-38 -157h-125l9 170l1 11 q6 44 33 77q28 34 66 62q48 35 83 58q43 28 83 65q44 41 69 80q28 45 36 107q6 43 -8 80q-13 36 -40 61q-26 24 -65 38q-38 13 -85 13q-63 0 -109 -15q-41 -13 -79 -34q-27 -15 -54 -34q-21 -15 -33 -15q-25 0 -37 24zM101 113q3 23 16 50q11 23 31 41q17 16 44 27t51 11 q25 0 49 -11q25 -12 38 -27q15 -18 22 -41t4 -50t-16 -51q-11 -21 -32 -40q-20 -19 -45 -28q-24 -9 -51 -9q-26 0 -49 9q-21 8 -37 28q-14 17 -22 40q-6 20 -3 51z" />
<glyph unicode="@" horiz-adv-x="1637" d="M1108 190q-80 0 -125 39q-46 40 -49 118q-69 -82 -144 -119q-71 -35 -154 -35q-62 0 -104 21q-43 22 -68 58q-25 37 -34 88q-9 49 -1 111q10 85 55 176q44 89 118 159q78 74 178 117q104 45 231 45q66 0 119 -11q52 -11 94 -31l-141 -370q-29 -78 -35 -127q-4 -36 2 -61 q6 -23 21 -38t34 -19q23 -5 44 -5q50 0 99 29t89 81q43 56 70 125q30 77 40 162q18 139 -16 248t-103 178q-70 70 -174 106t-229 36q-138 0 -263 -52t-227 -145q-101 -92 -167 -218q-67 -129 -85 -274q-21 -174 18 -306q40 -134 122 -221q84 -89 206 -134q121 -45 268 -45 q158 0 279 34q129 36 217 86q17 9 29 9q21 0 29 -24l17 -68q-120 -74 -264 -116q-145 -42 -322 -42q-176 0 -322 57q-148 58 -245 162q-101 108 -145 259q-45 153 -21 349q13 108 55 215q39 99 103 193q62 90 143 164q85 77 175 127q94 52 200 81q111 30 215 30 q95 0 182 -21q94 -23 163 -60q77 -42 136 -99q62 -60 100 -135q39 -76 54 -170q16 -99 3 -204q-13 -106 -57 -204q-41 -91 -106 -162q-63 -69 -142 -108t-165 -39zM687 313q30 0 65 11q37 12 67 35q34 26 64 70q30 43 56 111l115 302q-39 9 -86 9q-80 0 -145 -32 q-68 -33 -120 -85q-53 -52 -87 -120q-34 -66 -43 -138q-9 -74 19 -118q28 -45 95 -45z" />
<glyph unicode="A" horiz-adv-x="1566" d="M1441 115q25 -6 22 -34l-10 -81h-421l10 81q3 27 32 35l87 23l-78 296h-633l-151 -296l81 -23q26 -7 23 -35l-10 -81h-421l10 81q3 28 31 34l85 24l695 1328h201l368 -1328zM523 579h522l-148 563q-15 56 -27 138q-35 -87 -60 -139z" />
<glyph unicode="B" horiz-adv-x="1282" d="M931 755q317 -65 284 -337q-24 -190 -172 -302q-154 -116 -395 -116h-666l10 88q5 32 36 38l119 24l144 1168q-25 5 -53.5 10.5t-42 8.5t-18.5 4q-31 6 -26 38l11 88h615q393 0 460 -222q21 -72 12 -143q-9 -74 -31 -122q-21 -46 -63 -93q-84 -90 -224 -132zM489 1311 l-62 -501h262q245 0 326 148q24 44 32 103q16 128 -55 189q-72 61 -234 61h-269zM664 158q245 0 324 158q25 49 32 107q13 114 -59 180t-235 66h-316l-63 -511h317z" />
<glyph unicode="C" horiz-adv-x="1271" d="M877 1484q171 0 441 -106l-14 -114l-28 -228h-99q-35 0 -38 35q-2 18 2 93q1 23 2 44.5t2 33t1 14.5q-442 146 -704 -100q-168 -156 -201 -423q-33 -266 95 -426q119 -152 342 -152q128 0 197 24q106 38 195 109q20 15 35 15q16 0 28 -13l68 -85q-218 -221 -556 -221 q-315 0 -482 209q-165 206 -125 540q41 334 271 542q232 209 568 209z" />
<glyph unicode="D" horiz-adv-x="1511" d="M1472 733q-19 -164 -89 -300q-69 -134 -176 -231q-226 -202 -548 -202h-676l10 88q5 32 36 38l119 24l144 1168q-25 5 -53.5 10.5t-42 8.5t-18.5 4q-31 6 -26 38l11 88h677q324 0 498 -201q174 -205 134 -533zM1269 733q16 134 -8 242q-24 107 -82 180q-120 152 -359 152 h-330l-141 -1146h330q240 0 397 151q160 153 193 421z" />
<glyph unicode="E" horiz-adv-x="1176" d="M163 1467h1051l-43 -354h-98q-36 0 -39 36q-1 7 5 157h-549l-60 -488h541l-19 -155h-541l-61 -501h549q27 131 32 145q12 35 47 35h98l-42 -342h-1051l10 88q5 32 36 38l119 24l144 1168q-25 5 -53.5 10.5t-42 8.5t-18.5 4q-31 6 -26 38z" />
<glyph unicode="F" horiz-adv-x="1195" d="M310 1467h939l-43 -354h-100q-34 0 -37 36q-1 7 5 157h-584l-63 -513h557l-20 -162h-557l-59 -481q7 -1 22.5 -4.5t41 -9t50.5 -10.5q31 -6 26 -38l-11 -88h-494l10 88q5 32 36 38l119 24l144 1168q-25 5 -53.5 10.5t-42 8.5t-18.5 4q-31 6 -26 38l11 88h147z" />
<glyph unicode="G" horiz-adv-x="1388" d="M705 144q199 0 374 86l40 324h-227q-20 0 -30 11t-8 28l13 113h451l-69 -564q-238 -158 -578 -158q-320 0 -496 207q-179 210 -138 542q42 337 270 543q230 208 573 208q235 0 505 -106l-42 -342h-98q-36 0 -39 35q0 4 8 185q-72 23 -75 24q-114 32 -261 32 q-148 0 -254 -41q-108 -42 -186 -115q-165 -156 -198 -423q-33 -275 97 -433q129 -156 368 -156z" />
<glyph unicode="H" horiz-adv-x="1594" d="M1600 1341l-119 -23l-144 -1168q28 -6 55 -11.5t43.5 -9t22.5 -4.5q25 -5 20 -37l-11 -88h-495l11 88q5 32 35 38l120 24l63 518h-790l-64 -518q145 -30 140 -62l-11 -88h-494l10 88q5 32 36 38l119 24l144 1168q-96 20 -120 24q-25 5 -20 37l11 88h494l-10 -88 q-4 -31 -27 -36q-6 -1 -22.5 -4.5t-45.5 -9t-60 -11.5l-62 -505h790l62 505q-96 20 -120 24q-25 5 -20 37l11 88h496l-11 -88q-5 -32 -37 -38z" />
<glyph unicode="I" horiz-adv-x="603" d="M609 1341l-120 -23l-143 -1168q28 -6 55 -11.5t43.5 -9t22.5 -4.5q25 -5 20 -37l-11 -88h-494l10 88q5 32 36 38l119 24l144 1168q-96 20 -120 24q-25 5 -20 37l11 88h494l-10 -88q-5 -32 -37 -38z" />
<glyph unicode="J" horiz-adv-x="912" d="M180 150q284 0 327 353l100 815q-129 22 -134 23q-31 6 -26 38l11 88h512l-11 -88q-5 -32 -35 -38l-120 -23l-99 -811q-47 -379 -324 -488q-87 -35 -196 -35q-108 0 -210 28q25 130 40 143q14 13 34 13t50 -9t81 -9z" />
<glyph unicode="K" horiz-adv-x="1397" d="M1299 121q31 -6 26 -38l-10 -83h-481l10 82q3 30 33 36q8 1 96 18l-365 489q-31 39 -58 43q-24 4 -51 4h-90l-64 -522q33 -8 114 -24q32 -6 27 -38l-11 -88h-493l10 88q5 32 36 38l119 24l144 1168q-25 5 -53.5 10.5t-42 8.5t-18.5 4q-31 6 -26 38l11 88h493l-11 -88 q-5 -32 -36 -38q-32 -7 -120 -23l-60 -494h75q68 0 110 43l468 465q-71 15 -87 18q-27 6 -24 35l10 82h462l-7 -77q-5 -32 -35 -38q-5 -1 -17.5 -4t-36 -9t-44.5 -11l-497 -492q-52 -51 -89 -67q43 -15 86 -74l396 -553q23 -5 47 -10t36.5 -7.5z" />
<glyph unicode="L" horiz-adv-x="1118" d="M1048 319l-39 -319h-47h-19h-815h-147q8 70 10 88q1 13 11.5 24t24.5 14l120 23l143 1169q-96 19 -114 23q-29 7 -26 38l11 88h147h199h148q-9 -70 -11 -88q-1 -13 -11.5 -24t-24.5 -14q-8 -2 -37 -7.5t-55 -10.5t-27 -5l-142 -1151h530q22 110 25 117q4 15 18 25t29 10 h99z" />
<glyph unicode="M" horiz-adv-x="1931" d="M442 1178q0 -46 -7 -100l-114 -928q94 -16 136 -25q28 -6 24 -37l-11 -88h-488l10 88q5 32 36 38l119 24l144 1168q-25 5 -53.5 10.5t-42 8.5t-18.5 4q-31 6 -26 38l11 88h294q25 0 40 -5q14 -5 24 -28l396 -904q15 -30 33 -106q27 56 60 107l608 903q16 24 31 28 q17 5 42 5h294l-10 -88q-5 -32 -37 -38q-114 -23 -119 -23l-144 -1168q98 -20 114 -24q32 -6 27 -38l-11 -88h-489l11 88q5 32 34 38q28 6 140 24l114 928q7 55 16 97l-615 -918q-31 -46 -78 -46h-28q-47 0 -66 46z" />
<glyph unicode="N" horiz-adv-x="1591" d="M1191 328q0 47 7 100l110 890q-34 6 -65 11.5t-48.5 8t-20.5 3.5q-31 6 -26 38l11 88h167h174h149l-11 -88q-5 -32 -37 -38l-119 -23l-162 -1318h-100q-43 0 -67 36l-713 1105q-4 -63 -8 -95l-110 -896q123 -22 134 -24q31 -6 26 -38l-11 -88h-488l10 88q5 32 36 38 l119 24l144 1168q-25 5 -53.5 10.5t-42 8.5t-18.5 4q-31 6 -26 38l11 88h250q26 0 38 -6q13 -6 26 -27z" />
<glyph unicode="O" horiz-adv-x="1522" d="M1484 733q-19 -162 -89 -302q-69 -138 -177 -237q-110 -101 -248 -155q-137 -54 -302 -54t-288 54q-128 56 -210 155q-82 98 -118 237q-35 134 -15 302q19 164 89 303q68 135 177 237q106 99 247 155t302 56q160 0 289 -56t210 -155q82 -100 118 -237q35 -134 15 -303z M1280 733q17 136 -7 243q-24 110 -82 182q-59 74 -150 114q-90 40 -210 40t-219 -40q-102 -41 -178 -114q-80 -77 -128 -182q-50 -108 -66 -243q-17 -137 7 -242q24 -107 83 -181q60 -76 150 -114q91 -39 209 -39q119 0 220 39q100 39 178 114q77 74 127 181q49 106 66 242z " />
<glyph unicode="P" horiz-adv-x="1196" d="M955 1436q293 -96 252 -423q-26 -209 -182 -334q-161 -130 -422 -130h-208l-49 -399q20 -4 114 -24q31 -6 26 -38l-11 -88h-492l10 88q5 32 36 38l119 24l144 1168q-25 5 -53.5 10.5t-42 8.5t-18.5 4q-31 6 -26 38l11 88h553q142 0 239 -31zM1008 1013q16 139 -60 219 q-76 79 -252 79h-207l-75 -604h208q167 0 268 83q102 84 118 223z" />
<glyph unicode="Q" horiz-adv-x="1522" d="M1483 733q-12 -103 -45 -196q-34 -95 -82 -174q-47 -77 -116 -146q-68 -68 -143 -114l327 -406h-164q-38 0 -64 10q-27 11 -48 36l-223 281q-63 -19 -125 -29q-61 -10 -133 -10q-165 0 -288 54q-128 56 -210 155q-82 98 -118 237q-35 134 -15 302q19 164 89 303 q68 135 177 237q106 99 247 155t302 56q160 0 289 -56t210 -155q82 -100 118 -237q35 -134 15 -303zM1279 733q17 136 -7 243q-24 110 -82 182q-58 74 -150 114q-90 40 -210 40t-219 -40q-102 -41 -178 -114q-80 -77 -128 -182q-49 -108 -66 -243q-17 -137 7 -242 q24 -107 83 -181q60 -76 150 -114q91 -39 209 -39q120 0 220 39t178 114q77 74 127 181q49 106 66 242z" />
<glyph unicode="R" horiz-adv-x="1300" d="M1214 126q29 -7 26 -38l-11 -88h-36h-111h-65q-54 0 -75 42l-316 524q-17 27 -34 36q-19 10 -60 10h-131l-57 -463q16 0 114 -23q29 -7 26 -38l-10 -88h-148h-198h-147q8 70 10 88q1 13 11.5 24t24.5 14l120 23l143 1169q-96 19 -114 23q-29 7 -26 38l11 88h147h395 q142 0 238 -28q97 -28 157 -81q59 -51 82 -129q23 -76 11 -168q-9 -79 -42 -146q-32 -65 -86 -121q-53 -54 -125 -92t-159 -57q33 -20 58 -62l265 -434q32 -8 112 -23zM607 757q87 0 156 21q70 21 118 59q50 40 78 92q30 55 37 118q17 131 -62 197q-79 67 -250 67h-197 l-68 -554h188z" />
<glyph unicode="S" horiz-adv-x="1054" d="M795 776q210 -101 182 -331q-24 -199 -168 -327q-154 -134 -380 -134q-98 0 -199 19q-105 20 -161 39l-56 20l45 368h100q34 0 37 -35q2 -19 -2 -101q-1 -26 -2.5 -48t-2.5 -32v-9q144 -57 241 -57q96 0 154 20q59 20 101 55q88 71 103 194q15 116 -88 180 q-43 27 -105 49q-183 58 -247 89q-61 29 -104 72q-97 98 -76 273q20 164 152 280q140 124 342 124q201 0 401 -84l-41 -337h-99q-36 0 -38 35q-2 6 6 182q-132 39 -237 39q-127 0 -211 -67q-77 -62 -89 -161q-14 -109 89 -171q48 -31 108 -51q173 -60 245 -93z" />
<glyph unicode="T" horiz-adv-x="1206" d="M1233 1467h27l-39 -324h-100q-35 0 -37 21q-2 33 -1 136h-345l-141 -1150l3 -1q3 -1 9 -2.5t13 -2.5q55 -11 98 -20q22 -5 18 -36l-11 -88h-495l11 88q5 32 39 39q47 10 116 23l142 1150h-347q-24 -99 -35 -136q-6 -21 -41 -21h-100l40 324h1105h71z" />
<glyph unicode="U" horiz-adv-x="1492" d="M1402 1467h148l-10 -88q-5 -32 -37 -38l-120 -23l-91 -743q-31 -258 -207 -423q-181 -169 -449 -169q-266 0 -407 169q-136 165 -105 423l91 743q-25 5 -53.5 10.5t-42 8.5t-18.5 4q-31 6 -26 38l11 88h513l-11 -88q-5 -32 -36 -38q-4 -1 -20.5 -3.5t-50 -8t-68.5 -11.5 l-91 -741q-23 -189 65 -302q90 -117 270 -117t299 116q117 115 139 301l91 743q-34 6 -65 11.5t-47 8t-20 3.5q-33 6 -28 38l11 88h167h198z" />
<glyph unicode="V" horiz-adv-x="1497" d="M1065 1467h488l-10 -88q-5 -32 -36 -38l-105 -23l-699 -1318h-180l-374 1318q-24 6 -47 11t-36 8t-18 4q-31 6 -26 38l11 88h487l-11 -88q-5 -33 -45 -40q-47 -8 -110 -21l260 -933q16 -54 29 -161q37 108 65 161l486 933q-25 5 -53.5 10.5t-42 8.5t-18.5 4q-31 6 -26 38 z" />
<glyph unicode="W" horiz-adv-x="2208" d="M2179 1467h87l-11 -88q-5 -32 -35 -38l-105 -23l-574 -1318h-178l-234 1119q-7 31 -12 74q-3 -7 -7.5 -20t-6.5 -18q-13 -35 -14 -36l-511 -1119h-179l-248 1318q-24 6 -47 11t-36 8t-18 4q-31 6 -26 38l11 88h497l-10 -88q-5 -32 -36 -38q-113 -22 -119 -23l159 -918 q9 -56 13 -126q31 95 46 126l470 1020q9 19 28 33q18 14 45 14h58q51 0 62 -47l217 -1020q12 -53 18 -121q7 22 19 64q8 27 21 57l386 918q-7 1 -113 23q-32 6 -27 38l11 88h399z" />
<glyph unicode="X" horiz-adv-x="1505" d="M1383 126q31 -6 26 -38l-11 -88h-540l11 88q5 32 35 38q3 0 11 2t23.5 5t30.5 6t29 6t20 4l6 1l-260 503q-14 -28 -23 -41l-366 -462l15 -3q14 -3 41 -9t58 -12t26 -38l-11 -88h-528l11 88q5 32 36 38q46 9 139 24l479 604l-313 564q-128 21 -134 23q-32 6 -27 38l11 88 h523l-10 -88q-5 -32 -38 -38q-22 -4 -102 -20l249 -469q10 22 27 47l333 419q-3 1 -43.5 9t-70.5 14q-31 6 -26 38l11 88h526l-10 -88q-5 -33 -30 -37q-12 -2 -145 -24l-451 -555l328 -613q118 -20 134 -24z" />
<glyph unicode="Y" horiz-adv-x="1334" d="M897 1467h494l-11 -88q-5 -33 -31 -37q-27 -4 -111 -24l-538 -734l-53 -434q13 -3 114 -24q31 -6 26 -38l-11 -88h-147h-198h-147l11 88q5 32 35 38l120 24l53 434l-356 734q-73 18 -102 24q-28 6 -24 37l11 88h493l-10 -88q-5 -32 -37 -38q-114 -23 -118 -23l217 -467 q24 -53 43 -130q39 81 74 130l332 467q-6 1 -114 23q-31 6 -26 38z" />
<glyph unicode="Z" horiz-adv-x="1229" d="M1239 1328l-973 -1166h682q31 152 34 161q12 34 46 34h99l-24 -195l-20 -162h-1097l9 78q5 31 27 58l975 1170h-656q-29 -144 -35 -161q-12 -35 -46 -35h-99l24 196l20 161h1073l-9 -73q-5 -36 -30 -66z" />
<glyph unicode="[" horiz-adv-x="593" d="M16 -296l229 1866h377l-9 -72q-3 -21 -18 -35q-14 -13 -38 -13h-173l-199 -1625h173q23 0 35 -13t9 -36l-9 -72h-377z" />
<glyph unicode="\" horiz-adv-x="658" d="M46 1508h78q35 0 56 -17q23 -19 32 -50l427 -1533h-77q-30 0 -56 17t-35 53z" />
<glyph unicode="]" horiz-adv-x="606" d="M-26 -224q3 20 18 35q14 14 38 14h173l200 1625h-173q-23 0 -35 14q-13 14 -10 34l9 72h377l-229 -1866h-377z" />
<glyph unicode="^" horiz-adv-x="931" d="M490 1467h118l285 -661h-132q-19 0 -29 10q-12 12 -17 25l-157 360q-7 16 -17 46q-8 23 -12 43q-20 -46 -48 -89l-243 -360q-11 -16 -23 -25q-13 -10 -34 -10h-139z" />
<glyph unicode="_" horiz-adv-x="1130" d="M964 -169l-15 -123h-807l15 123h807z" />
<glyph unicode="`" horiz-adv-x="543" d="M279 1484q32 0 48 -11q15 -11 27 -34l122 -248h-104q-20 0 -34 7q-12 6 -25 22l-208 264h174z" />
<glyph unicode="a" horiz-adv-x="1059" d="M708 2q-62 0 -62 63l19 208q-116 -205 -270 -265q-50 -20 -108 -20q-138 0 -205 102t-67 263q0 279 191 488q194 213 466 213q144 0 254 -49l-106 -854q2 0 54 -10.5t62 -12.5q13 -3 22 -13.5t9 -24.5v-88h-165h-94zM691 549l44 351q-23 18 -44 18h-44q-184 0 -317 -160 q-132 -159 -132 -373q0 -246 157 -246q99 0 190 116q88 111 146 294z" />
<glyph unicode="b" horiz-adv-x="1115" d="M1066 526v-2l-1 -2v-3q-15 -127 -63 -226q-50 -103 -117 -167q-72 -69 -158 -104q-88 -36 -185 -36q-82 0 -195 14t-185 28l-71 15l2 17l18 149l142 1151q-108 18 -128 22q-30 7 -27 38l11 89h162h6h177l-76 -621q73 74 163 120t196 46q91 0 159 -34q69 -35 112 -101 q43 -67 58 -166q16 -104 0 -227zM760 229q47 51 76 123q26 63 39 158q1 2 1 8t1 8q12 106 4 174q-9 74 -37 119q-29 47 -75 68q-49 22 -109 22q-88 0 -161 -41q-69 -39 -137 -116l-30 -242l-32 -260l-11 -89q97 -26 200 -32q13 -1 39 -1h13q68 3 115 25q58 25 104 76z" />
<glyph unicode="c" horiz-adv-x="905" d="M815 145q-150 -159 -403 -159q-201 0 -308 140q-114 146 -84 393q30 240 173 384q151 151 381 151q121 0 298 -76l-33 -269h-82q-31 0 -32 28q-1 9 2 77q3 66 3 69q-45 14 -73 19q-61 9 -115 8q-55 -1 -115 -27q-58 -25 -106 -77q-91 -103 -114 -287q-23 -187 46 -291 q67 -101 208 -101q127 0 239 86q20 16 41 16t30 -17z" />
<glyph unicode="d" horiz-adv-x="1114" d="M532 1056q173 0 269 -123l52 426q-81 13 -133 23q-32 6 -27 38l11 88h350l-167 -1358q96 -20 114 -24q31 -6 26 -38l-11 -88h-256q-38 0 -44 38l-1 126q-168 -178 -370 -178q-183 0 -270 135q-90 137 -58 394q28 234 167 385q142 156 348 156zM423 133q162 0 299 157 l61 502q-75 121 -224 121t-239 -103q-90 -104 -114 -295q-36 -294 107 -360q49 -22 110 -22z" />
<glyph unicode="e" horiz-adv-x="893" d="M829 191q-46 -47 -85 -79.5t-92 -63.5t-117.5 -46.5t-140.5 -15.5q-138 0 -227 65.5t-128 180.5q-27 78 -27 175q0 253 145 443q152 202 394 202q105 0 179.5 -41.5t105.5 -115.5q18 -42 18 -80q0 -82 -32 -134.5t-97 -92.5q-72 -44 -203 -79q-120 -32 -332 -54 q-1 -8 -1 -22v-22q0 -282 241 -282q122 0 209 68q56 43 79 58q16 10 33 10q19 0 33 -17zM691 808q0 54 -43 83.5t-107 29.5q-188 0 -287 -210q-29 -60 -46 -136q159 20 253 45q95 26 146 54q43 25 63.5 55t20.5 79z" />
<glyph unicode="f" horiz-adv-x="815" d="M734 1489q69 0 126 -21l-15 -91q-2 -10 -6.5 -16.5t-16 -8.5t-18.5 -2.5t-26 -0.5h-32q-210 0 -238 -237l-11 -95h300l-16 -132h-295q-19 -160 -58.5 -480.5t-59.5 -481.5q-17 -137 -98.5 -216.5t-222.5 -79.5q-71 0 -123 21l20 98q6 20 35 20h40q82 0 119.5 38.5 t47.5 119.5l117 958l-113 13q-47 12 -43 47l9 75h164l12 100q21 169 125.5 270.5t276.5 101.5z" />
<glyph unicode="g" horiz-adv-x="998" d="M859 747q-2 -55 -13 -93q-13 -45 -29 -75q-24 -46 -38 -66q-10 -14 -38 -61q-15 -26 -29 -63q-12 -32 -12 -71q0 -42 21 -77q25 -42 46 -72q29 -42 47 -80q21 -44 21 -103q0 -74 -34 -138q-36 -67 -97 -115q-68 -53 -152 -80q-92 -29 -201 -29q-84 0 -162 19 q-75 18 -125 52q-53 36 -80 81q-28 47 -28 105q0 81 42 140t111 96q68 37 156 55q82 17 178 17q38 0 74 -3q24 -2 72 -8q-9 19 -15 41q-6 21 -6 45q0 28 10 66q8 32 32 76q-36 -25 -87 -41q-48 -15 -109 -15q-59 0 -111 20q-53 20 -91 57q-38 36 -61 95q-23 58 -23 132 t27 145q28 73 79 127q52 55 130 90q75 34 177 34q110 0 195 -54h282l-8 -60q-1 -14 -12 -32q-8 -14 -29 -17l-129 -23q10 -29 14 -56q5 -32 5 -61zM669 -29q0 25 -5 50q-2 11 -14 44q-48 8 -104 13q-43 4 -91 4q-85 0 -146 -15q-60 -15 -101 -39q-40 -24 -60 -57 q-19 -31 -19 -67q0 -74 62 -113q61 -39 176 -39q67 0 123 18t95 48q41 32 62 69q22 40 22 84zM464 465q55 0 97 24q43 24 71 63q31 42 45 89q15 49 15 99q0 90 -45 137q-45 46 -126 46q-54 0 -97 -23t-71 -60q-27 -36 -43 -86q-15 -48 -15 -101q0 -93 44 -140 q45 -48 125 -48z" />
<glyph unicode="h" horiz-adv-x="1190" d="M1086 126q31 -6 26 -38l-11 -88h-330l81 660q30 248 -188 248q-151 0 -298 -144l-50 -406l-44 -358h-182l25 201l142 1158q-126 21 -134 23q-31 6 -26 38l10 88h351l-75 -610q165 156 353 156q168 0 244 -108q77 -105 54 -286l-62 -511q25 -5 53.5 -10.5t42 -8.5t18.5 -4 z" />
<glyph unicode="i" horiz-adv-x="510" d="M395 126q30 -7 27 -38l-11 -88h-330l18 149l91 739q-96 19 -114 23q-30 7 -27 38l11 88h330l-109 -888q96 -19 114 -23zM467 1414q7 -23 4 -51q-3 -27 -17 -50q-14 -24 -33 -41t-45 -28q-24 -10 -52 -10q-27 0 -48 10q-24 11 -38 28q-16 19 -23 41q-7 21 -4 50 q3 26 17 51q14 24 33 42q18 17 44 28q23 10 51 10t49 -10q24 -11 38 -28q17 -21 24 -42z" />
<glyph unicode="j" horiz-adv-x="579" d="M581 1414q7 -23 4 -51q-3 -29 -16 -50q-13 -22 -34 -41q-19 -17 -45 -28q-24 -10 -52 -10q-27 0 -48 10q-22 10 -37 28q-17 21 -24 41q-7 21 -4 50q3 26 17 51q14 24 33 42q18 17 44 28q23 10 51 10t49 -10q24 -11 38 -28q17 -21 24 -42zM175 -350q-60 -23 -128 -23 q-71 0 -123 21l20 98q6 21 35 21h40q80 0 118 37q37 36 48 120l119 964q-68 13 -114 23q-31 6 -26 38l11 88h147h182l-136 -1114q-25 -207 -193 -273z" />
<glyph unicode="k" horiz-adv-x="1076" d="M1061 1037h12l-10 -88q-5 -33 -30 -37q-41 -7 -130 -24l-274 -257q-36 -37 -66 -54q33 -24 54 -65l243 -363l51 -10q10 -2 28.5 -5t27 -5t18.5 -6.5t13 -13t2 -21.5l-11 -88h-193q-41 0 -65 36l-288 425q-13 21 -27 28t-46 7h-51q-10 -83 -30.5 -248.5t-30.5 -247.5h-183 q28 226 83.5 679t83.5 680q-25 5 -53.5 10.5t-42 8.5t-18.5 4q-31 6 -26 38l10 88h331l-109 -887h47q38 0 67 28l265 251q-7 1 -23 3.5t-24 5t-18.5 7t-14 13t-2.5 20.5l10 88h420z" />
<glyph unicode="l" horiz-adv-x="505" d="M389 126q32 -6 27 -38l-11 -88h-330l166 1359q-112 23 -113 23q-31 6 -26 38l10 88h330l-167 -1359q111 -22 114 -23z" />
<glyph unicode="m" horiz-adv-x="1726" d="M909 838q47 92 138.5 154t205.5 62q178 0 257 -102.5t55 -291.5l-63 -510q98 -20 114 -24q32 -6 27 -38l-11 -88h-331l81 660q15 118 -28.5 183t-148.5 65t-173 -70.5t-81 -177.5l-81 -660h-182l81 660q30 248 -166 248q-127 0 -248 -135l-95 -773h-183l109 888 q-112 23 -113 23q-31 6 -26 38l10 88h256q39 0 45 -38v-106q152 161 314 161q201 0 237 -216z" />
<glyph unicode="n" horiz-adv-x="1183" d="M1073 126q32 -6 27 -38l-11 -88h-331l82 660q30 248 -188 248q-151 0 -298 -144l-94 -764h-183l109 888q-112 23 -113 23q-31 6 -26 38l10 88h256q39 0 45 -38v-112q173 167 365 167q166 0 243.5 -106t55.5 -288l-63 -510q97 -20 114 -24z" />
<glyph unicode="o" horiz-adv-x="1057" d="M579 1054q112 0 200 -38q86 -37 143 -108q54 -67 77 -168q22 -98 7 -221t-61 -221t-119 -168q-72 -69 -169 -107q-95 -37 -210 -37q-114 0 -200 37q-87 38 -143 107q-57 71 -79 168q-23 100 -8 221t62 221q47 99 120 168q76 71 170 108q97 38 210 38zM465 128 q154 0 242 103q89 104 111 287q23 186 -40 289t-217 103q-81 0 -139 -26q-59 -27 -105 -77q-42 -47 -72 -123q-26 -67 -39 -166q-12 -94 -2 -165q11 -74 43 -122q33 -50 86 -76q54 -27 132 -27z" />
<glyph unicode="p" horiz-adv-x="1150" d="M399 877q170 179 371 179q182 0 269 -135q90 -140 58 -396q-28 -233 -166 -384q-142 -155 -333 -155q-190 0 -285 122l-38 -310q1 0 7 -1.5t20 -4t28 -5.5q34 -7 59 -12q31 -6 26 -38l-11 -88h-477l11 88q5 32 35 38l120 23l134 1090q-25 5 -53.5 10.5t-42 8.5t-18.5 4 q-31 6 -26 38l11 88h147h109q38 0 44 -38zM331 250q77 -123 224 -123q149 0 239 103q90 104 114 295q47 383 -217 383q-161 0 -299 -156z" />
<glyph unicode="q" horiz-adv-x="1062" d="M712 154q-163 -166 -359 -166q-185 0 -270 135q-90 140 -59 393l1 3q31 250 181 397q143 140 342 140q167 0 379 -43l72 -15l-147 -1199q115 -18 128 -22q31 -6 26 -37l-11 -89h-513l11 89q5 30 31 36q28 6 145 24zM430 133q162 0 299 157l72 591q-125 33 -239 33h-12 q-205 -7 -295 -225q-29 -71 -35 -119l-7 -54q-47 -383 217 -383z" />
<glyph unicode="r" horiz-adv-x="803" d="M309 1037q29 0 39 -10.5t11 -39.5l-7 -162q142 231 344 231q79 0 137 -37l-40 -136q-11 -26 -30 -26q-16 0 -48 10t-81 10q-178 0 -293 -217l-81 -660h-183l109 888q-112 23 -113 23q-31 6 -26 38l10 88h252z" />
<glyph unicode="s" horiz-adv-x="850" d="M535 1054q105 0 264 -55l-9 -72l-24 -194h-81q-29 0 -31 29q0 18 4 134q-94 22 -157 22h-2q-87 -2 -147 -45q-60 -42 -66 -94q-6 -53 14 -79q33 -46 109 -71q74 -24 123 -41q56 -19 94 -37q46 -22 80 -51q75 -69 61 -183q-18 -149 -130 -237q-116 -93 -286 -95 q-165 -1 -327 56l33 271h73q26 0 27 -25q1 -4 -4 -131q84 -41 206 -41q101 0 166 51q58 46 65 104q8 58 -12 87t-55 48t-83 34q-130 42 -183 66q-51 23 -87 56q-75 71 -60 192q15 126 122 210q113 91 303 91z" />
<glyph unicode="t" horiz-adv-x="662" d="M325 -16q-124 0 -180 68q-58 71 -42 198l78 635h-125q-16 0 -26 9q-11 9 -8 31l9 72l173 22l81 320q5 17 16 25q11 10 30 10h92l-44 -357h297l-16 -132h-297l-76 -623q-8 -67 20 -97q29 -32 78 -32q26 0 50 8q20 7 39 17q6 3 28 17q11 7 20 7q14 0 23 -17l43 -87 q-52 -43 -122 -69q-68 -25 -141 -25z" />
<glyph unicode="u" horiz-adv-x="1177" d="M477 129q155 0 298 143l76 616q-1 0 -113 23q-32 6 -27 38l11 88h147h183l-109 -887q94 -19 113 -24q33 -6 28 -38l-11 -88h-257q-39 0 -45 38v112q-169 -166 -365 -166q-167 0 -246 107q-75 103 -53 285l63 512q-25 5 -53.5 10.5t-42 8.5t-18.5 4q-31 6 -26 38l11 88 h330l-82 -661q-15 -117 32 -182t156 -65z" />
<glyph unicode="v" horiz-adv-x="1147" d="M1108 1037h71l-11 -88q-5 -32 -36 -38q-1 0 -102 -20l-472 -891h-165l-254 891q-15 4 -56 12q-7 1 -14 2.5t-11.5 2t-8 1.5t-5.5 1.5t-3 0.5q-31 6 -26 38l11 88h464l-10 -88q-5 -32 -36 -38q-13 -3 -116 -22l152 -557q13 -49 20 -147q37 107 58 147l290 556 q-4 1 -21 4.5t-41.5 8.5t-51.5 10q-31 6 -26 38l11 88h389z" />
<glyph unicode="w" horiz-adv-x="1708" d="M1276 1037h463l-11 -88q-5 -32 -35 -38q-3 0 -10.5 -1.5l-20 -4t-23.5 -4.5q-12 -2 -23.5 -4.5t-18.5 -4t-9 -1.5l-397 -891h-145q-27 0 -32 35l-143 703q-8 32 -9 50q-2 30 -3 46q-3 -9 -9 -26t-8 -24q-5 -15 -19 -47l-318 -702q-15 -35 -47 -35h-137l-179 891 q-8 1 -33 6q-16 3 -32.5 6.5t-24 5.5t-10.5 2q-31 6 -26 38l11 88h462l-10 -88q-5 -32 -37 -38q-10 -2 -115 -22l97 -557q10 -100 11 -141q16 47 57 141l302 672q15 35 54 35h79q41 0 48 -35l131 -672q10 -58 19 -139q17 62 49 139l236 556q-10 1 -118 23q-32 6 -27 38z" />
<glyph unicode="x" horiz-adv-x="1133" d="M910 145q21 -5 52.5 -11t36.5 -7q36 -8 32 -39l-11 -88h-408l11 88q5 32 37 38q2 0 9 1.5t18.5 4t24.5 4.5l-161 308q-9 -25 -28 -53l-204 -253q4 -1 24 -5q33 -6 35 -7q32 -6 27 -38l-11 -88h-407l11 88q5 32 35 38l19 4q18 3 32 6q36 8 51 9l310 386l-203 359 q-24 5 -47.5 10t-37 7.5t-18.5 3.5q-32 6 -27 38l11 88h407l-11 -88q-5 -32 -36 -38q-2 -1 -45 -9l149 -281q11 25 34 57l179 222q-30 7 -32 7q-20 3 -21 4q-31 6 -26 38l11 88h406l-11 -88q-5 -32 -37 -38q-26 -5 -109 -21l-289 -348z" />
<glyph unicode="y" horiz-adv-x="1144" d="M1102 1037h75l-11 -88q-5 -32 -36 -38q-2 0 -9 -1.5t-20 -4t-26 -5.5q-31 -6 -55 -10l-662 -1196q-26 -45 -71 -45h-135l240 411l-262 833q-20 4 -41.5 8t-33 6.5t-16.5 3.5q-31 6 -26 38l11 88h464l-10 -88q-5 -32 -36 -38q-12 -3 -115 -22l164 -543q11 -38 16 -91 q27 63 42 92l291 542q-27 6 -63.5 13t-45.5 9q-30 6 -25 38l11 88h385z" />
<glyph unicode="z" horiz-adv-x="939" d="M260 1037h667l-9 -78q-4 -35 -35 -69l-653 -748h462q21 109 28 137q9 25 35 25h73l-37 -304h-793l9 76q4 31 34 65l657 753h-444q-20 -100 -26 -125q-9 -26 -34 -26h-73l36 294h103z" />
<glyph unicode="{" horiz-adv-x="607" d="M158 435q7 63 -23 106q-30 42 -99 42l13 109q69 0 110 41q42 42 49 107q6 48 4 101q0 2 -6 100q-4 64 -5 102q-1 48 5 104q9 74 36 130q28 58 77 103q46 42 113 66q66 24 150 24h54l-10 -81q-3 -21 -18 -30t-27 -9h-21q-77 0 -131 -52q-51 -50 -62 -140q-7 -53 -7 -110 q0 -36 4 -104q2 -33 4 -101q1 -47 -5 -101q-4 -35 -21 -72q-16 -36 -39 -60q-22 -24 -55 -45q-28 -18 -65 -28q33 -9 58 -28q27 -21 44 -46q18 -26 25 -59q7 -30 2 -71q-6 -55 -19 -101q-9 -33 -29 -101q-18 -61 -29 -104q-13 -51 -21 -111q-11 -89 28 -140t119 -51h20 q13 0 26 -9t10 -30l-10 -82h-54q-84 0 -144 24t-97 67q-38 44 -51 103q-14 61 -5 130q6 53 21 104q27 91 30 101q6 20 16.5 55.5t13.5 45.5q15 49 21 101z" />
<glyph unicode="|" horiz-adv-x="422" d="M140 1570h141v-1921h-141v1921z" />
<glyph unicode="}" horiz-adv-x="620" d="M394 435q-6 -48 -4 -101q1 -33 5 -101q1 -12 2.5 -32t2.5 -37t1 -32q1 -48 -5 -104q-9 -71 -37 -130q-28 -60 -76 -103q-47 -43 -114 -67q-66 -24 -150 -24h-54l10 82q3 21 18 30t28 9h20q79 0 131 51t63 140q6 46 6 111q0 53 -3 104q-2 33 -4 101q-1 47 5 101 q4 37 20 71q13 29 40 59q23 26 54 46q28 18 66 28q-35 9 -59 28t-43 45q-17 24 -25 60q-8 33 -3 72q6 49 20 101q9 33 29 101q18 61 29 104q11 44 20 110q11 89 -28 140q-40 52 -118 52h-20q-13 0 -26 9q-14 9 -11 30l10 81h55q84 0 144 -24q62 -25 96 -66q38 -46 51 -103 q14 -64 6 -130q-6 -53 -21 -104q-22 -76 -31 -102q-6 -19 -17 -56.5t-13 -43.5q-13 -44 -20 -101q-8 -69 22 -107q32 -41 100 -41l-14 -109q-68 0 -109 -42q-42 -43 -49 -106z" />
<glyph unicode="~" horiz-adv-x="1169" d="M769 628q68 0 110 43q41 43 52 115h148q-9 -67 -35 -126q-26 -58 -66 -98q-41 -41 -95 -63q-57 -23 -121 -23q-52 0 -103 17q-54 18 -97 36q-11 5 -29 12.5t-32.5 13.5t-26.5 11q-43 17 -79 17q-67 0 -109 -43q-43 -44 -53 -116h-147q9 71 34 126q25 56 67 98t95 64 q55 23 121 23q52 0 103 -17q38 -13 96 -37q39 -16 89 -36q43 -17 78 -17z" />
<glyph unicode="&#xa1;" horiz-adv-x="473" d="M41 -351l68 554q7 54 13 89q1 4 6 37t9 51q14 69 19 92q4 17 12 51.5t11 48.5h124q0 -38 -2 -100q-3 -91 -3 -92q-6 -84 -6 -88q-6 -58 -10 -89l-68 -554h-173zM153 926q3 25 16 50q12 23 32 41q19 18 44 27q23 10 51 10q24 0 49 -10q22 -9 37 -27q16 -19 23 -41 q7 -21 4 -50q-3 -25 -17 -50q-13 -24 -32 -41q-18 -17 -44 -28q-23 -10 -51 -10q-29 0 -50 10q-22 10 -37 28t-22 41q-6 20 -3 50z" />
<glyph unicode="&#xa2;" horiz-adv-x="922" d="M791 211l43 -67q-146 -155 -391 -159l-33 -176q-5 -19 -20 -34t-37 -15h-68l44 236q-128 28 -206 129q-114 145 -84 393q30 239 174 383q130 131 319 149l35 183q4 20 21 37q15 15 37 15h67l-45 -236q110 -15 244 -73l-33 -268h-82q-30 0 -31 28q-2 15 4 146 q-36 12 -72 18q-44 7 -57 8l-1 -1l-148 -778l-1 -3h43q35 0 79 16q48 18 76 35q30 19 51 35q20 16 42 16q21 0 30 -17zM227 518q-23 -187 46 -291q32 -48 85 -75q5 17 146 749q-166 -38 -238 -220q-28 -72 -39 -163z" />
<glyph unicode="&#xa3;" horiz-adv-x="1187" d="M67 688q3 26 22 45t48 19h138l32 267q12 96 50 181q37 84 102 147t153 99q91 37 201 37q77 0 139 -20q59 -19 104 -55q42 -34 73 -81q30 -47 48 -99l-80 -47q-9 -5 -22 -9q-11 -3 -21 -3q-15 0 -27 6q-13 6 -21 20q-24 34 -36 50q-19 26 -41 42q-23 17 -57 28 q-35 11 -78 11q-64 0 -117 -21q-50 -20 -89 -62q-38 -41 -61 -96q-23 -54 -32 -126l-33 -269h452l-10 -74q-3 -20 -19 -34q-17 -15 -40 -15h-398l-31 -249q-9 -78 -45 -133t-93 -102l60 9q40 4 60 4h692l-9 -78q-1 -14 -9 -28q-9 -16 -19 -26q-11 -11 -27 -19q-14 -7 -34 -7 h-987l15 118q41 12 70 27q28 15 61 44q27 24 47 61q19 35 25 83l36 296h-199z" />
<glyph unicode="&#xa4;" horiz-adv-x="1084" d="M176 688q8 59 30 110q21 47 59 97l-138 157l105 92l135 -156q48 30 105 49q55 18 115 18q57 0 108 -17q46 -15 90 -48l176 157l80 -93l-174 -156q27 -47 37 -98q11 -55 4 -112q-8 -62 -30 -110q-24 -53 -59 -97l137 -154l-105 -95l-136 156q-49 -30 -105 -48 q-52 -17 -113 -17q-60 0 -108 16q-47 16 -91 47l-176 -157l-80 94l174 155q-25 45 -36 98q-11 55 -4 112zM311 688q-6 -47 7 -88q14 -43 41 -73q30 -33 67 -50q39 -18 87 -18t93 18t80 50q36 33 59 73t29 88q6 49 -7 90q-13 42 -41 74q-27 32 -68 50t-88 18q-48 0 -92 -18 q-41 -17 -79 -50q-36 -32 -59 -74q-23 -43 -29 -90z" />
<glyph unicode="&#xa5;" horiz-adv-x="1163" d="M88 640h313l-316 827h153q28 0 41 -12q15 -13 22 -34l211 -579q12 -41 17 -66q8 -41 10 -59q11 30 24 60q18 41 31 65l353 579q9 15 29 32q17 14 44 14h154l-521 -827h315l-13 -104h-348l-13 -108h348l-13 -105h-348l-40 -323h-183l39 323h-348l13 105h348l13 108h-348z " />
<glyph unicode="&#xa6;" horiz-adv-x="423" d="M248 1570h141l-99 -813h-142zM112 463h142l-100 -814h-142z" />
<glyph unicode="&#xa7;" horiz-adv-x="959" d="M871 1295q-15 -22 -41 -22q-14 0 -33 11q-15 10 -45 25q-31 15 -64 26q-38 12 -90 12q-51 0 -90 -13q-40 -13 -71 -35q-29 -21 -48 -50q-17 -27 -22 -60q-4 -39 17 -68t59 -53q40 -26 87 -47q12 -6 47 -21t54 -24q48 -22 99 -52q50 -28 85 -64q34 -34 55 -84 q19 -46 12 -109q-11 -85 -58 -148q-49 -66 -139 -104q45 -37 71 -88q26 -50 17 -121t-42 -133q-32 -60 -88 -105q-54 -44 -132 -70t-170 -26q-110 0 -192 35q-87 37 -139 91l51 70q9 12 22 20q11 7 30 7q20 0 37 -14q4 -3 47 -32q27 -18 69 -33q39 -14 106 -14q53 0 93 13 q44 14 73 36q32 24 49 54q19 32 23 71q6 44 -16 80q-21 34 -60 60q-45 30 -90 48q-18 7 -53 22t-51 22q-57 24 -104 48q-48 25 -87 62q-37 36 -57 84q-19 48 -12 113q11 81 62 144t151 99q-47 39 -72 93q-25 53 -16 131q8 60 38 114q31 56 84 96q54 42 124 65q75 25 159 25 q101 0 180 -32q78 -31 130 -88zM245 743q-6 -53 25 -88q34 -39 84 -66q60 -33 116 -56q57 -24 124 -59q59 27 88 65q29 37 35 87q5 38 -7 65q-12 28 -36 52q-23 23 -57 43q-31 18 -72 38q-25 12 -79 36q-48 21 -79 38q-72 -30 -104 -68t-38 -87z" />
<glyph unicode="&#xa8;" horiz-adv-x="797" d="M353 1320q-3 -25 -14 -44q-12 -21 -30 -36q-20 -17 -41 -25q-22 -9 -46 -9q-22 0 -41 9q-20 9 -34 25t-20 36q-7 23 -4 44q3 26 14 45q11 20 30 37q16 15 40 25q23 10 44 10t43 -10q19 -9 34 -25q15 -17 21 -37q7 -23 4 -45zM721 1320q-3 -23 -15 -44q-13 -23 -29 -36 q-21 -17 -40 -25q-23 -9 -46 -9q-24 0 -43 9q-20 9 -34 25t-20 36q-7 23 -4 44q3 24 15 45q13 22 29 37q17 16 40 25q25 10 45 10q22 0 44 -10t34 -25q14 -18 20 -37q7 -23 4 -45z" />
<glyph unicode="&#xa9;" horiz-adv-x="1618" d="M1013 474q3 2 8 5t7 4q6 3 12 3q12 0 15 -3q1 -1 4.5 -4t5.5 -5l54 -65q-66 -67 -156 -105q-91 -38 -209 -38q-99 0 -178 35t-129 97q-52 65 -73 149q-22 88 -10 188q12 102 59 190q48 90 116 149q71 62 160 96t190 34q109 0 184 -35t125 -91l-55 -66q-9 -9 -15 -13 q-9 -6 -21 -6q-14 0 -29 12t-38 25q-21 12 -62 25q-37 12 -98 12q-71 0 -132 -23q-62 -23 -106 -66q-47 -45 -76 -105q-30 -61 -39 -138q-9 -82 5 -141q16 -65 48 -104q34 -41 86 -64q50 -22 115 -22q43 0 83 7q38 7 61 16q21 8 46 23zM60 733q12 103 51 199q40 98 97 180 q56 80 136 151q75 66 166 117q86 48 188 76q99 27 202 27t196 -27t169 -76q78 -50 137 -117q60 -68 99 -151q37 -81 53 -180q14 -92 2 -199q-12 -102 -51 -198q-40 -99 -97 -179q-59 -83 -136 -151q-75 -66 -166 -117q-86 -48 -188 -76q-95 -26 -202 -26q-108 0 -196 26 q-93 27 -168 76q-80 52 -138 117q-57 64 -98 151q-39 81 -54 179q-14 91 -2 198zM163 733q-11 -93 1 -175q12 -83 45 -157q33 -72 84 -133q51 -60 117 -102t147 -65t170 -23q135 0 260 51q123 50 223 140q98 87 164 208q65 119 82 256q10 89 -2 176q-12 85 -45 159 q-31 70 -85 133q-52 61 -118 103t-147 66t-170 24q-133 0 -260 -52q-125 -51 -222 -141q-99 -92 -163 -210q-64 -120 -81 -258z" />
<glyph unicode="&#xaa;" horiz-adv-x="707" d="M584 860h-62q-18 0 -27 6q-8 5 -14 24l-6 50q-28 -22 -53 -38q-22 -14 -53 -28q-24 -11 -56 -17q-30 -6 -64 -6q-41 0 -71 10q-32 11 -54 31q-20 19 -32 52q-10 28 -5 73q5 35 28 69t72 61q48 27 125 45q79 19 186 20l4 38q8 66 -18 96t-84 30q-38 0 -65 -9 q-21 -7 -47 -20t-37 -19q-16 -9 -32 -9q-14 0 -24 8q-8 7 -13 18l-17 43q59 49 124 73t140 24q55 0 96 -18q42 -19 67 -48q26 -30 36 -73q10 -42 4 -96zM300 945q51 0 93 20q38 18 81 55l13 107q-74 -2 -122 -10q-47 -8 -83 -23q-32 -13 -48 -32t-19 -39q-6 -41 20 -60 q24 -18 65 -18z" />
<glyph unicode="&#xab;" horiz-adv-x="807" d="M54 530l3 24l304 398l56 -28q13 -7 19 -19q5 -11 4 -24q-1 -17 -14 -34l-196 -267q-21 -28 -33 -38q14 -16 24 -37l130 -267q4 -7 6 -18q2 -9 0 -17q-3 -28 -34 -42l-63 -29zM357 530l3 24l304 398l56 -28q13 -7 19 -19q5 -11 4 -24q-1 -17 -14 -34l-196 -267 q-21 -28 -33 -38q14 -16 24 -37l130 -267q4 -7 6 -18q2 -9 0 -17q-3 -28 -34 -42l-63 -29z" />
<glyph unicode="&#xac;" horiz-adv-x="1097" d="M110 757h881l-54 -434h-154l36 295h-726z" />
<glyph unicode="&#xad;" d="M127 691h505l-19 -154h-505z" />
<glyph unicode="&#xae;" horiz-adv-x="1618" d="M60 733q12 103 51 199q40 98 97 180q56 80 136 151q75 66 166 117q86 48 188 76q99 27 202 27t196 -27t169 -76q78 -50 137 -117q60 -68 99 -151q37 -81 53 -180q14 -92 2 -199q-12 -102 -51 -198q-40 -99 -97 -179q-59 -83 -136 -151q-75 -66 -166 -117 q-86 -48 -188 -76q-95 -26 -202 -26q-108 0 -196 26q-93 27 -168 76q-80 52 -138 117q-57 64 -98 151q-39 81 -54 179q-14 91 -2 198zM163 733q-11 -93 1 -175q12 -83 45 -157q33 -72 84 -133q51 -60 117 -102t147 -65t170 -23q135 0 260 51q123 50 223 140q98 87 164 208 q65 119 82 256q10 89 -2 176q-12 85 -45 159q-31 70 -85 133q-52 61 -118 103t-147 66t-170 24q-133 0 -260 -52q-125 -51 -222 -141q-99 -92 -163 -210q-64 -120 -81 -258zM649 641l-45 -362h-159l112 913h295q177 0 253 -64q77 -65 62 -189q-12 -97 -75 -164t-175 -93 q16 -10 27 -26q13 -18 20 -35l191 -342h-151q-34 0 -47 25l-168 309q-7 13 -20 21q-11 7 -38 7h-82zM663 758h119q55 0 97 11q41 11 67 31t41 50q16 31 20 69q4 36 -2 66q-6 29 -26 47q-21 19 -54 28q-34 9 -88 9h-136z" />
<glyph unicode="&#xaf;" horiz-adv-x="819" d="M146 1380h588l-15 -119h-588z" />
<glyph unicode="&#xb0;" horiz-adv-x="823" d="M96 1155q9 71 41 129q33 60 84 105t114 70q66 26 135 26t129 -26q58 -25 97 -70q41 -47 58 -105q18 -60 9 -129t-41 -127q-34 -62 -83 -105q-52 -46 -115 -71q-66 -26 -135 -26q-70 0 -128 26t-97 71q-41 47 -58 105q-19 62 -10 127zM226 1154q-6 -42 5 -80 q10 -37 35 -65t60 -44t78 -16q44 0 82 16q37 16 70 44q31 27 51 65q19 37 25 80q6 42 -5 81q-10 37 -35 66q-22 26 -59 44q-33 16 -78 16q-44 0 -82 -16q-42 -18 -71 -44q-32 -29 -51 -66q-19 -36 -25 -81z" />
<glyph unicode="&#xb1;" horiz-adv-x="1112" d="M716 1231l-48 -385h417l-17 -139h-417l-46 -377h-150l47 377h-415l17 139h415l47 385h150zM27 220h981l-17 -138h-981z" />
<glyph unicode="&#xb2;" horiz-adv-x="680" d="M256 1029q53 14 95 14h159q11 55 12 57q6 20 27 20h56l-24 -198h-524l6 44q5 33 29 54l254 224q137 122 149 215q6 53 -21 81t-73 28q-89 0 -131 -92q-22 -31 -49 -31q-4 0 -18 2l-71 12q29 110 106 163q78 54 182 54q107 0 164 -58q58 -59 46 -155q-12 -101 -122 -205 q-42 -40 -65 -60z" />
<glyph unicode="&#xb3;" horiz-adv-x="648" d="M400 1676q52 0 93 -15q39 -14 67 -41q27 -26 39 -60t7 -76q-16 -130 -144 -177q66 -20 96 -60q30 -41 23 -103q-8 -57 -34 -100q-27 -44 -66 -72q-40 -29 -87 -44q-48 -15 -98 -15q-60 0 -100 13q-41 13 -69 38t-46 62q-18 38 -27 85l60 25q17 6 30 6q29 0 38 -24 q3 -10 12 -29q7 -15 21 -31q14 -15 34 -24q23 -10 54 -10q33 0 57 10q27 11 43 26q19 18 29 37q11 22 14 42q4 28 -2 52q-6 21 -25 37q-16 13 -50 21q-31 7 -81 7l11 90q89 2 129 31q41 30 47 84q6 52 -20 78q-27 27 -76 27t-81 -24q-30 -23 -49 -65q-10 -16 -20 -24t-25 -8 h-9q-3 0 -9 2l-67 12q13 54 41 95q27 40 64 68q35 26 81 40q47 14 95 14z" />
<glyph unicode="&#xb4;" horiz-adv-x="587" d="M541 1484l-271 -264q-19 -17 -31 -22q-18 -7 -36 -7h-109l182 248q15 22 36 34q19 11 51 11h178z" />
<glyph unicode="&#xb5;" horiz-adv-x="1152" d="M388 1037l-83 -673q-14 -113 34 -174t156 -61q79 0 155 38t143 105l94 765h182l-127 -1037h-109q-38 0 -44 38l-1 112q-80 -76 -154 -109q-78 -35 -166 -35q-75 0 -130 26q-52 25 -88 73q2 -57 0 -87q-2 -35 -8 -84l-35 -285h-91q-40 0 -57 20q-18 21 -14 58l161 1310 h182z" />
<glyph unicode="&#xb6;" horiz-adv-x="1385" d="M1392 1467l-19 -156h-225l-186 -1517h-161l187 1517h-284l-186 -1517h-161l108 882q-107 0 -187 31q-82 32 -135 85q-52 52 -77 127q-24 71 -13 155q10 86 52 160q40 72 108 124q70 54 154 81q87 28 195 28h830z" />
<glyph unicode="&#xb7;" horiz-adv-x="516" d="M107 607q5 34 19 61q15 28 39 49t52 33t60 12t59 -12t45 -33t27 -49q9 -30 5 -61q-5 -30 -20 -58q-16 -28 -38 -49q-21 -20 -54 -33q-28 -11 -61 -11q-34 0 -57 11q-28 13 -45 33t-27 49q-9 26 -4 58z" />
<glyph unicode="&#xb8;" horiz-adv-x="566" d="M119 -253q4 0 14 -4q3 -1 9 -4t9 -4q13 -5 27 -8q17 -3 37 -3q44 0 67 16q25 17 28 44q3 17 -8 33q-8 12 -29 22q-23 11 -50 16q-37 7 -68 11l62 144h114l-34 -82q91 -21 126 -55q38 -37 31 -91q-5 -34 -24 -59q-22 -28 -51 -45q-35 -20 -73 -28q-42 -9 -92 -9 q-46 0 -79 8q-38 9 -66 23l24 57q9 18 26 18z" />
<glyph unicode="&#xb9;" horiz-adv-x="556" d="M99 1009h150l56 450l9 44l-121 -90q-13 -9 -27 -9q-24 0 -31 14l-33 58l251 194h111l-82 -661h134l-11 -87h-417z" />
<glyph unicode="&#xba;" horiz-adv-x="795" d="M457 1484q73 0 127 -22q55 -22 91 -63q36 -40 51 -100q15 -59 6 -132q-9 -75 -38 -133q-29 -59 -76 -101q-43 -39 -107 -63q-59 -22 -132 -22q-75 0 -129 22q-58 24 -92 63q-36 42 -51 101q-15 60 -6 133q10 77 38 132q31 60 77 100q47 41 107 63t134 22zM392 956 q86 0 135 54q50 55 62 156q12 105 -23 156q-36 53 -122 53q-89 0 -139 -53q-49 -53 -61 -156t23 -156q36 -54 125 -54z" />
<glyph unicode="&#xbb;" horiz-adv-x="802" d="M132 132l-56 29q-26 13 -23 42q1 16 14 35l196 267q19 27 32 37q-12 14 -23 38l-130 267q-7 18 -6 35q3 28 34 42l63 28l206 -398l-3 -24zM742 554l-3 -24l-304 -398l-56 29q-26 13 -23 42q1 16 14 35l196 267q19 27 32 37q-12 14 -23 38l-130 267q-7 18 -6 35 q3 28 34 42l63 28z" />
<glyph unicode="&#xbc;" horiz-adv-x="1340" d="M1173 273h112l-9 -66q-1 -11 -9 -19t-22 -8h-83l-23 -180h-111l22 180h-313q-19 0 -29 8q-10 7 -10 21l-3 58l409 479h127zM71 807h151l55 450l9 45l-120 -91q-13 -9 -28 -9q-24 0 -31 15l-33 57l251 194h111l-81 -661h133l-11 -87h-417zM1092 520q0 3 2 18t4 24 q6 30 10 46l-288 -335h241zM264 54q-24 -31 -47 -43q-22 -11 -53 -11h-78l1010 1405q23 30 47 46q25 16 59 16h79z" />
<glyph unicode="&#xbd;" horiz-adv-x="1348" d="M898 108q53 14 95 14h159q11 52 12 56q6 21 27 21h56l-24 -199h-524l6 44q5 33 29 54l254 225q137 122 149 215q6 52 -21 80t-74 28q-88 0 -130 -92q-22 -31 -49 -31q-4 0 -18 2l-71 13q29 108 106 162q79 55 182 55q107 0 164 -59q58 -59 46 -154q-12 -101 -122 -205 q-54 -52 -65 -61zM74 807h151l55 450l10 45l-121 -91q-13 -9 -32 -9t-27 15l-32 57l251 194h110l-81 -661h133l-10 -87h-417zM223 54q-39 -54 -101 -54h-78l1010 1405q46 62 106 62h79z" />
<glyph unicode="&#xbe;" horiz-adv-x="1387" d="M1218 273h112l-8 -66q-1 -10 -10 -19q-8 -8 -21 -8h-84l-22 -180h-112l22 180h-313q-18 0 -28 8q-11 8 -11 21l-3 58l409 479h127zM385 1475q51 0 92 -15q39 -14 67 -41q26 -25 39 -61q12 -36 8 -76q-17 -130 -144 -177q67 -20 96 -59q30 -40 22 -104q-7 -56 -34 -99 q-28 -45 -65 -72q-39 -29 -88 -44q-48 -15 -97 -15q-63 0 -100 12q-43 14 -70 38t-45 62t-27 85l59 25q16 6 31 6q29 0 38 -24q6 -18 11 -29q7 -15 21 -31q13 -15 35 -24q23 -10 53 -10t57 11q28 12 44 26q20 19 29 36q10 20 13 42q4 29 -2 53q-5 21 -24 36q-17 14 -51 22 q-31 7 -80 7l11 89q88 1 129 32q41 30 47 84q6 51 -20 77q-27 27 -76 27q-50 0 -81 -24q-32 -24 -50 -65q-10 -16 -20 -24t-25 -8q-2 0 -4 0.5t-4 0.5q-7 0 -10 1l-67 12q13 54 41 95q26 38 65 68q37 28 81 41q47 14 95 14zM1137 520q1 3 2.5 18t3.5 24q6 30 10 46 l-288 -335h242zM314 54q-24 -31 -47 -43q-22 -11 -54 -11h-78l1010 1405q22 29 48 46q25 16 58 16h79z" />
<glyph unicode="&#xbf;" horiz-adv-x="780" d="M736 -217q-34 -28 -77 -56q-42 -27 -90 -48q-43 -19 -102 -32q-54 -12 -116 -12q-80 0 -147 23q-68 23 -112 64q-44 42 -66 103q-21 60 -12 137q9 78 39 132q31 55 70 93q42 41 86 67q18 10 47.5 29t36.5 23q42 26 69 50q30 27 37 59l38 157h125l-9 -171l-1 -12 q-6 -46 -33 -77q-28 -33 -65 -57q-47 -30 -82 -50q-42 -23 -82 -54q-36 -27 -67 -72q-28 -40 -36 -102q-6 -43 8 -80q13 -36 39 -60q27 -25 66 -39q38 -13 85 -13q61 0 108 15q43 14 80 34q27 15 54 34q21 15 34 15q14 0 22 -6q9 -7 14 -17zM419 925q3 23 16 50q11 21 32 41 q18 17 43 27q27 11 52 11t49 -11t37 -27q15 -18 22 -41t4 -50t-16 -51q-11 -21 -32 -40t-44 -28q-24 -9 -52 -9q-26 0 -49 9q-21 8 -37 28q-13 15 -21 40q-7 22 -4 51z" />
<glyph unicode="&#xc0;" horiz-adv-x="1512" d="M1441 115q25 -6 22 -34l-10 -81h-421l10 81q3 27 32 35l87 23l-78 296h-633l-151 -296l81 -23q26 -7 23 -35l-10 -81h-421l10 81q3 28 31 34l85 24l695 1328h201l368 -1328zM523 579h522l-148 563q-15 56 -27 138q-35 -87 -60 -139zM772 1825q30 0 48 -7q17 -7 34 -27 l190 -208h-142q-17 0 -33 4q-9 2 -28 16l-275 222h206z" />
<glyph unicode="&#xc1;" horiz-adv-x="1511" d="M1441 115q25 -6 22 -34l-10 -81h-421l10 81q3 27 32 35l87 23l-78 296h-633l-151 -296l81 -23q26 -7 23 -35l-10 -81h-421l10 81q3 28 31 34l85 24l695 1328h201l368 -1328zM523 579h522l-148 563q-15 56 -27 138q-35 -87 -60 -139zM1285 1825l-328 -221q-21 -13 -33 -17 t-35 -4h-142l242 208q10 8 21 16q9 6 19 11q6 3 21 5q16 2 29 2h206z" />
<glyph unicode="&#xc2;" horiz-adv-x="1512" d="M1441 115q25 -6 22 -34l-10 -81h-421l10 81q3 27 32 35l87 23l-78 296h-633l-151 -296l81 -23q26 -7 23 -35l-10 -81h-421l10 81q3 28 31 34l85 24l695 1328h201l368 -1328zM523 579h522l-148 563q-15 56 -27 138q-35 -87 -60 -139zM1240 1583h-138q-9 0 -27 4 q-13 3 -22 9l-121 98q-9 6 -11 8q-10 -7 -14 -8l-145 -98q-11 -6 -24 -9q-20 -4 -28 -4h-138l270 215h181z" />
<glyph unicode="&#xc3;" horiz-adv-x="1512" d="M1441 115q25 -6 22 -34l-10 -81h-421l10 81q3 27 32 35l87 23l-78 296h-633l-151 -296l81 -23q26 -7 23 -35l-10 -81h-421l10 81q3 28 31 34l85 24l695 1328h201l368 -1328zM523 579h522l-148 563q-15 56 -27 138q-35 -87 -60 -139zM1045 1703q36 0 57 21t27 59h101 q-6 -45 -22 -81q-18 -41 -40 -64q-25 -27 -59 -42q-33 -15 -74 -15q-37 0 -67 13q-32 14 -60 30q-19 11 -53 29q-25 13 -49 13q-36 0 -57 -22q-21 -23 -27 -59h-102q7 50 21 82q16 37 42 64q26 28 59 42q34 15 75 15q36 0 66 -13q33 -14 59 -30q12 -7 53 -29q25 -13 50 -13z " />
<glyph unicode="&#xc4;" horiz-adv-x="1511" d="M1441 115q25 -6 22 -34l-10 -81h-421l10 81q3 27 32 35l87 23l-78 296h-633l-151 -296l81 -23q26 -7 23 -35l-10 -81h-421l10 81q3 28 31 34l85 24l695 1328h201l368 -1328zM523 579h522l-148 563q-15 56 -27 138q-35 -87 -60 -139zM817 1706q-3 -24 -15 -43 q-12 -20 -29 -35t-39 -24q-23 -9 -46 -9q-20 0 -40 9q-18 8 -32 24q-13 15 -21 35q-7 19 -4 43t15 45q11 20 29 36q16 15 38 24q23 10 43 10q22 0 44 -10q20 -9 33 -24q14 -16 20 -36q7 -23 4 -45zM1253 1706q-3 -24 -15 -43q-13 -22 -28 -35q-15 -14 -39 -24q-21 -9 -44 -9 t-43 9t-33 24q-14 16 -20 35q-6 20 -3 43q3 26 14 45q13 22 28 36t39 24q23 10 45 10q20 0 42 -10q20 -9 33 -24q14 -16 20 -36q7 -23 4 -45z" />
<glyph unicode="&#xc5;" horiz-adv-x="1511" d="M1441 115q25 -6 22 -34l-10 -81h-421l10 81q3 27 32 35l87 23l-78 296h-633l-151 -296l81 -23q26 -7 23 -35l-10 -81h-421l10 81q3 28 31 34l85 24l695 1328h201l368 -1328zM523 579h522l-148 563q-15 56 -27 138q-35 -87 -60 -139zM725 1699q4 37 25 74q17 30 49 57 q29 25 65 38q35 13 76 13t73 -13q34 -14 58 -38q25 -25 35 -57q11 -37 7 -74q-5 -39 -24 -72q-18 -30 -50 -56q-29 -23 -67 -37q-36 -13 -77 -13q-40 0 -72 13q-35 14 -56 37q-24 26 -35 56q-12 32 -7 72zM816 1699q-6 -44 18 -73q25 -30 73 -30q44 0 77 30q32 29 38 73 q6 45 -19 75q-24 28 -71 28q-48 0 -79 -28t-37 -75z" />
<glyph unicode="&#xc6;" horiz-adv-x="1970" d="M-18 81q3 28 31 34v1l85 23l776 1193q-4 0 -26 5q-17 3 -18 4q-31 6 -26 38l11 88h1193l-43 -353h-100q-34 0 -37 35q-2 12 4 157h-611l2 -488h541l-19 -155h-522l1 -501h469q29 139 31 145q12 35 47 35h99l-42 -342h-938l11 88q5 32 35 38q2 0 8.5 1.5t17.5 4t23 4.5 q42 8 52 9l-1 256h-569l-167 -262l80 -23q27 -7 24 -35l-10 -81h-232h-1h-80h-109zM559 545h477l-2 771q-23 -56 -74 -145z" />
<glyph unicode="&#xc7;" horiz-adv-x="1269" d="M876 1484q171 0 441 -106l-14 -114l-28 -228h-99q-35 0 -38 35q-2 18 2 93q1 23 2 45l1.5 33t0.5 14q-441 146 -703 -100q-168 -157 -201 -423t95 -426q119 -152 342 -152q128 0 197 24q106 38 195 109q19 15 35 15t28 -13l68 -85q-205 -209 -518 -220l-22 -57 q92 -21 127 -55q37 -36 31 -80q-6 -46 -25 -70q-22 -28 -51 -45q-64 -37 -165 -37q-79 0 -145 31l24 57q9 18 26 18q4 0 14 -4q1 -1 7.5 -3t10.5 -4q27 -12 67 -12q42 0 65 16t26 40q3 23 -6 37q-9 13 -30 22q-31 15 -118 27l52 121q-264 24 -408 204q-166 207 -125 542 q41 334 271 542q232 209 568 209z" />
<glyph unicode="&#xc8;" horiz-adv-x="1172" d="M161 1467h1051l-43 -354h-98q-36 0 -39 36q-1 7 5 157h-549l-60 -488h541l-19 -155h-541l-61 -501h549q27 131 32 145q12 35 47 35h98l-42 -342h-1051l10 88q5 32 36 38l119 24l144 1168q-25 5 -53.5 10.5t-42 8.5t-18.5 4q-31 6 -26 38zM653 1825q31 0 48 -7t34 -27 l191 -208h-143q-17 0 -33 4q-9 2 -28 16l-275 222h206z" />
<glyph unicode="&#xc9;" horiz-adv-x="1172" d="M161 1467h1051l-43 -354h-98q-36 0 -39 36q-1 7 5 157h-549l-60 -488h541l-19 -155h-541l-61 -501h549q27 131 32 145q12 35 47 35h98l-42 -342h-1051l10 88q5 32 36 38l119 24l144 1168q-25 5 -53.5 10.5t-42 8.5t-18.5 4q-31 6 -26 38zM1166 1825l-328 -221 q-21 -13 -33 -17t-35 -4h-141l241 208q10 8 21 16q9 6 19 11q6 3 21 5q16 2 29 2h206z" />
<glyph unicode="&#xca;" horiz-adv-x="1173" d="M161 1467h1051l-43 -354h-98q-36 0 -39 36q-1 7 5 157h-549l-60 -488h541l-19 -155h-541l-61 -501h549q27 131 32 145q12 35 47 35h98l-42 -342h-1051l10 88q5 32 36 38l119 24l144 1168q-25 5 -53.5 10.5t-42 8.5t-18.5 4q-31 6 -26 38zM1121 1583h-138q-8 0 -26 4 q-14 3 -23 9l-121 98q-9 6 -11 8q-11 -7 -13 -8l-145 -98q-11 -6 -25 -9q-20 -4 -27 -4h-139l271 215h180z" />
<glyph unicode="&#xcb;" horiz-adv-x="1173" d="M161 1467h1051l-43 -354h-98q-36 0 -39 36q-1 7 5 157h-549l-60 -488h541l-19 -155h-541l-61 -501h549q27 131 32 145q12 35 47 35h98l-42 -342h-1051l10 88q5 32 36 38l119 24l144 1168q-25 5 -53.5 10.5t-42 8.5t-18.5 4q-31 6 -26 38zM698 1706q-3 -24 -15 -43 q-13 -22 -28 -35q-16 -14 -40 -24q-23 -9 -45 -9t-41 9q-18 8 -32 24q-11 13 -20 35q-7 19 -4 43q3 26 14 45q11 20 29 36q15 14 39 24q23 10 42 10q22 0 44 -10q19 -9 33 -24q14 -16 20 -36q7 -23 4 -45zM1134 1706q-3 -26 -14 -43q-12 -20 -29 -35q-18 -15 -39 -24t-44 -9 q-24 0 -43 9t-33 24q-14 16 -20 35q-6 20 -3 43q3 26 14 45q11 20 29 36q16 15 38 24q23 10 46 10q19 0 41 -10q19 -9 33 -24q14 -16 20 -36q7 -23 4 -45z" />
<glyph unicode="&#xcc;" horiz-adv-x="601" d="M608 1341l-120 -23l-143 -1168q28 -6 55 -11.5t43.5 -9t22.5 -4.5q25 -5 20 -37l-11 -88h-494l10 88q5 32 36 38l119 24l144 1168q-96 20 -120 24q-25 5 -20 37l11 88h494l-11 -88q-5 -32 -36 -38zM290 1825q30 0 48 -7q15 -6 33 -27l191 -208h-142q-18 0 -34 4 q-8 2 -27 16l-275 222h206z" />
<glyph unicode="&#xcd;" horiz-adv-x="722" d="M608 1341l-120 -23l-143 -1168q28 -6 55 -11.5t43.5 -9t22.5 -4.5q25 -5 20 -37l-11 -88h-494l10 88q5 32 36 38l119 24l144 1168q-96 20 -120 24q-25 5 -20 37l11 88h494l-11 -88q-5 -32 -36 -38zM803 1825l-329 -221q-22 -14 -32 -17q-12 -4 -36 -4h-141l242 208 q10 8 21 16q9 6 19 11q6 3 21 5q16 2 29 2h206z" />
<glyph unicode="&#xce;" horiz-adv-x="678" d="M608 1341l-120 -23l-143 -1168q28 -6 55 -11.5t43.5 -9t22.5 -4.5q25 -5 20 -37l-11 -88h-494l10 88q5 32 36 38l119 24l144 1168q-96 20 -120 24q-25 5 -20 37l11 88h494l-11 -88q-5 -32 -36 -38zM758 1583h-139q-8 0 -26 4q-13 3 -22 9l-121 98q-11 7 -12 8 q-11 -7 -13 -8l-145 -98q-11 -6 -25 -9q-20 -4 -27 -4h-138l270 215h180z" />
<glyph unicode="&#xcf;" horiz-adv-x="690" d="M608 1341l-120 -23l-143 -1168q28 -6 55 -11.5t43.5 -9t22.5 -4.5q25 -5 20 -37l-11 -88h-494l10 88q5 32 36 38l119 24l144 1168q-96 20 -120 24q-25 5 -20 37l11 88h494l-11 -88q-5 -32 -36 -38zM333 1706q-3 -26 -14 -43q-12 -20 -29 -35q-16 -15 -39 -24 q-22 -9 -46 -9q-21 0 -40 9t-33 24q-11 13 -20 35q-7 19 -4 43t15 45q11 20 29 36q16 15 38 24q23 10 43 10q21 0 43 -10q21 -10 34 -24q14 -16 20 -36q6 -21 3 -45zM770 1706q-3 -24 -15 -43q-12 -20 -29 -35q-18 -15 -39 -24t-44 -9t-43 9q-18 8 -32 24t-20 35 q-7 22 -4 43q3 26 14 45q11 20 29 36q15 14 39 24q23 10 45 10q20 0 42 -10q19 -9 33 -24q14 -16 20 -36q7 -23 4 -45z" />
<glyph unicode="&#xd0;" horiz-adv-x="1511" d="M1457 1033q36 -134 16 -300q-19 -164 -89 -300q-69 -134 -176 -231q-107 -96 -247 -149q-141 -53 -301 -53h-530h-147q8 70 10 88q1 13 11.5 24t24.5 14l120 23l65 533h-201l15 117h200l64 519q-96 19 -114 23q-29 7 -26 38l11 88h148h529q163 0 288 -52 q126 -53 210 -150q82 -94 119 -232zM1203 492q50 107 66 241q17 137 -7 242q-24 107 -82 180q-59 74 -150 113t-210 39h-330l-62 -508h390l-14 -117h-390l-64 -521h330q118 0 218 39q103 40 178 112q78 75 127 180z" />
<glyph unicode="&#xd1;" horiz-adv-x="1589" d="M1189 328q0 47 7 100l110 890q-34 6 -65 11.5t-48.5 8t-20.5 3.5q-31 6 -26 38l11 88h167h174h149l-11 -88q-5 -32 -37 -38l-119 -23l-162 -1318h-100q-43 0 -67 36l-713 1105q-4 -63 -8 -95l-110 -896q123 -22 134 -24q31 -6 26 -38l-11 -88h-488l10 88q5 32 36 38 l119 24l144 1168q-25 5 -53.5 10.5t-42 8.5t-18.5 4q-31 6 -26 38l11 88h250q26 0 38 -6q13 -6 26 -27zM1082 1703q36 0 57 21t27 59h100q-7 -48 -21 -81q-18 -41 -40 -64q-25 -27 -59 -42q-33 -15 -74 -15q-37 0 -67 13q-31 14 -60 30q-19 11 -53 29q-25 13 -49 13 q-36 0 -57 -22q-21 -23 -27 -59h-103q6 47 22 82q16 37 42 64q26 28 59 42q34 15 74 15q37 0 67 -13q33 -14 59 -30q12 -7 53 -29q25 -13 50 -13z" />
<glyph unicode="&#xd2;" horiz-adv-x="1519" d="M1482 733q-19 -162 -89 -302q-69 -138 -177 -237q-110 -101 -248 -155q-137 -54 -302 -54t-288 54q-128 56 -210 155q-82 98 -118 237q-35 134 -15 302q19 164 89 303q68 135 177 237q106 99 247 155t302 56q160 0 289 -56t210 -155q82 -100 118 -237q35 -134 15 -303z M1278 733q17 136 -7 243q-24 110 -82 182q-59 74 -150 114q-90 40 -210 40t-219 -40q-102 -41 -178 -114q-80 -77 -128 -182q-50 -108 -66 -243q-17 -137 7 -242q24 -107 83 -181q60 -76 150 -114q92 -39 209 -39q119 0 220 39q100 39 178 114q77 74 127 181q49 106 66 242z M730 1825q32 0 49 -7q15 -6 33 -27l191 -208h-143q-17 0 -33 4q-9 2 -28 16l-275 222h206z" />
<glyph unicode="&#xd3;" horiz-adv-x="1519" d="M1482 733q-19 -162 -89 -302q-69 -138 -177 -237q-110 -101 -248 -155q-137 -54 -302 -54t-288 54q-128 56 -210 155q-82 98 -118 237q-35 134 -15 302q19 164 89 303q68 135 177 237q106 99 247 155t302 56q160 0 289 -56t210 -155q82 -100 118 -237q35 -134 15 -303z M1278 733q17 136 -7 243q-24 110 -82 182q-59 74 -150 114q-90 40 -210 40t-219 -40q-102 -41 -178 -114q-80 -77 -128 -182q-50 -108 -66 -243q-17 -137 7 -242q24 -107 83 -181q60 -76 150 -114q92 -39 209 -39q119 0 220 39q100 39 178 114q77 74 127 181q49 106 66 242z M1243 1825l-328 -221q-21 -13 -33 -17t-35 -4h-141l241 208q10 8 21 16q9 6 19 11q6 3 22 5t28 2h206z" />
<glyph unicode="&#xd4;" horiz-adv-x="1519" d="M1482 733q-19 -162 -89 -302q-69 -138 -177 -237q-110 -101 -248 -155q-137 -54 -302 -54t-288 54q-128 56 -210 155q-82 98 -118 237q-35 134 -15 302q19 164 89 303q68 135 177 237q106 99 247 155t302 56q160 0 289 -56t210 -155q82 -100 118 -237q35 -134 15 -303z M1278 733q17 136 -7 243q-24 110 -82 182q-59 74 -150 114q-90 40 -210 40t-219 -40q-102 -41 -178 -114q-80 -77 -128 -182q-50 -108 -66 -243q-17 -137 7 -242q24 -107 83 -181q60 -76 150 -114q92 -39 209 -39q119 0 220 39q100 39 178 114q77 74 127 181q49 106 66 242z M1198 1583h-138q-8 0 -26 4q-14 3 -23 9l-121 98q-9 6 -11 8q-11 -7 -13 -8l-145 -98q-11 -6 -25 -9q-20 -4 -27 -4h-138l270 215h180z" />
<glyph unicode="&#xd5;" horiz-adv-x="1519" d="M1482 733q-19 -162 -89 -302q-69 -138 -177 -237q-110 -101 -248 -155q-137 -54 -302 -54t-288 54q-128 56 -210 155q-82 98 -118 237q-35 134 -15 302q19 164 89 303q68 135 177 237q106 99 247 155t302 56q160 0 289 -56t210 -155q82 -100 118 -237q35 -134 15 -303z M1278 733q17 136 -7 243q-24 110 -82 182q-59 74 -150 114q-90 40 -210 40t-219 -40q-102 -41 -178 -114q-80 -77 -128 -182q-50 -108 -66 -243q-17 -137 7 -242q24 -107 83 -181q60 -76 150 -114q92 -39 209 -39q119 0 220 39q100 39 178 114q77 74 127 181q49 106 66 242z M1003 1703q36 0 57 21q22 22 28 59h100q-7 -48 -21 -81q-17 -39 -41 -64q-26 -27 -58 -42q-33 -15 -75 -15q-37 0 -67 13q-28 12 -59 30q-19 11 -53 29q-25 13 -50 13q-35 0 -56 -22q-22 -24 -28 -59h-102q6 47 22 82q17 39 41 64q25 27 60 42t74 15q37 0 67 -13 q33 -14 59 -30q18 -11 52 -29q25 -13 50 -13z" />
<glyph unicode="&#xd6;" horiz-adv-x="1519" d="M1482 733q-19 -162 -89 -302q-69 -138 -177 -237q-110 -101 -248 -155q-137 -54 -302 -54t-288 54q-128 56 -210 155q-82 98 -118 237q-35 134 -15 302q19 164 89 303q68 135 177 237q106 99 247 155t302 56q160 0 289 -56t210 -155q82 -100 118 -237q35 -134 15 -303z M1278 733q17 136 -7 243q-24 110 -82 182q-59 74 -150 114q-90 40 -210 40t-219 -40q-102 -41 -178 -114q-80 -77 -128 -182q-50 -108 -66 -243q-17 -137 7 -242q24 -107 83 -181q60 -76 150 -114q92 -39 209 -39q119 0 220 39q100 39 178 114q77 74 127 181q49 106 66 242z M775 1706q-3 -26 -14 -43q-12 -20 -29 -35q-16 -14 -40 -24q-23 -9 -45 -9q-21 0 -41 9q-18 8 -32 24q-11 13 -20 35q-7 19 -4 43q3 26 14 45q11 20 29 36q15 14 39 24q23 10 42 10q22 0 44 -10q20 -9 33 -24q14 -16 20 -36q7 -23 4 -45zM1211 1706q-3 -26 -14 -43 q-12 -20 -29 -35q-15 -14 -39 -24q-21 -9 -44 -9t-43 9t-33 24q-14 16 -20 35q-6 20 -3 43q3 26 14 45q11 20 29 36q15 14 39 24q23 10 45 10q20 0 42 -10q18 -8 32 -24t20 -36q7 -23 4 -45z" />
<glyph unicode="&#xd7;" horiz-adv-x="951" d="M966 1038l-395 -352l318 -361l-109 -99l-318 363l-411 -365l-85 99l410 364l-310 353l109 99l310 -355l395 353z" />
<glyph unicode="&#xd8;" horiz-adv-x="1541" d="M1494 733q-19 -162 -89 -302q-69 -138 -177 -237q-110 -101 -247 -155t-303 -54q-112 0 -203 25q-96 26 -168 74l-120 -139q-25 -29 -57 -43q-33 -14 -61 -14h-80l228 267q-102 101 -147 247q-45 148 -23 331q19 161 90 303q68 137 176 237q106 98 248 155q141 56 302 56 q117 0 216 -30q100 -30 177 -85l98 114q24 27 42 39t50 12h103l-206 -241q93 -100 133 -242q39 -139 18 -318zM250 733q-17 -141 8 -246q26 -108 87 -183l788 921q-53 42 -129 65q-72 22 -163 22q-120 0 -219 -40q-102 -41 -178 -114q-78 -75 -127 -182q-51 -111 -67 -243z M1291 733q16 127 -5 232q-21 104 -73 177l-783 -914q108 -71 270 -71q118 0 219 39q100 39 178 114q77 74 127 181q51 109 67 242z" />
<glyph unicode="&#xd9;" horiz-adv-x="1491" d="M1401 1467h148l-11 -88q-5 -32 -36 -38l-120 -23l-91 -743q-31 -258 -207 -423q-181 -169 -449 -169q-266 0 -407 169q-136 165 -105 423l91 743q-25 5 -53.5 10.5t-42 8.5t-18.5 4q-31 6 -26 38l11 88h513l-11 -88q-5 -32 -36 -38q-4 -1 -20.5 -3.5t-50 -8t-68.5 -11.5 l-91 -741q-23 -189 65 -302q90 -117 270 -117t299 116q117 115 139 301l91 743q-34 6 -65 11.5t-47 8t-20 3.5q-33 6 -28 38l11 88h167h198zM696 1825q30 0 48 -7q17 -7 34 -27l191 -208h-143q-17 0 -33 4q-9 2 -28 16l-275 222h206z" />
<glyph unicode="&#xda;" horiz-adv-x="1491" d="M1401 1467h148l-11 -88q-5 -32 -36 -38l-120 -23l-91 -743q-31 -258 -207 -423q-181 -169 -449 -169q-266 0 -407 169q-136 165 -105 423l91 743q-25 5 -53.5 10.5t-42 8.5t-18.5 4q-31 6 -26 38l11 88h513l-11 -88q-5 -32 -36 -38q-4 -1 -20.5 -3.5t-50 -8t-68.5 -11.5 l-91 -741q-23 -189 65 -302q90 -117 270 -117t299 116q117 115 139 301l91 743q-34 6 -65 11.5t-47 8t-20 3.5q-33 6 -28 38l11 88h167h198zM1209 1825l-328 -221q-21 -13 -33 -17t-35 -4h-141l241 208q10 8 21 16q9 6 19 11q6 3 22 5t28 2h206z" />
<glyph unicode="&#xdb;" horiz-adv-x="1491" d="M1401 1467h148l-11 -88q-5 -32 -36 -38l-120 -23l-91 -743q-31 -258 -207 -423q-181 -169 -449 -169q-266 0 -407 169q-136 165 -105 423l91 743q-25 5 -53.5 10.5t-42 8.5t-18.5 4q-31 6 -26 38l11 88h513l-11 -88q-5 -32 -36 -38q-4 -1 -20.5 -3.5t-50 -8t-68.5 -11.5 l-91 -741q-23 -189 65 -302q90 -117 270 -117t299 116q117 115 139 301l91 743q-34 6 -65 11.5t-47 8t-20 3.5q-33 6 -28 38l11 88h167h198zM1164 1583h-138q-8 0 -26 4q-14 3 -23 9l-121 98q-9 6 -11 8q-11 -7 -13 -8l-145 -98q-11 -6 -25 -9q-20 -4 -27 -4h-138l270 215 h180z" />
<glyph unicode="&#xdc;" horiz-adv-x="1491" d="M1401 1467h148l-11 -88q-5 -32 -36 -38l-120 -23l-91 -743q-31 -258 -207 -423q-181 -169 -449 -169q-266 0 -407 169q-136 165 -105 423l91 743q-25 5 -53.5 10.5t-42 8.5t-18.5 4q-31 6 -26 38l11 88h513l-11 -88q-5 -32 -36 -38q-4 -1 -20.5 -3.5t-50 -8t-68.5 -11.5 l-91 -741q-23 -189 65 -302q90 -117 270 -117t299 116q117 115 139 301l91 743q-34 6 -65 11.5t-47 8t-20 3.5q-33 6 -28 38l11 88h167h198zM741 1706q-3 -26 -14 -43q-12 -20 -29 -35q-18 -15 -40 -24t-45 -9q-21 0 -41 9q-18 8 -32 24q-11 13 -20 35q-7 19 -4 43 q3 26 14 45q11 20 29 36q15 14 39 24q23 10 42 10q22 0 44 -10q20 -9 33 -24q14 -16 20 -36q7 -23 4 -45zM1177 1706q-3 -26 -14 -43q-12 -20 -29 -35q-15 -14 -39 -24q-21 -9 -44 -9t-43 9t-33 24q-14 16 -20 35q-6 20 -3 43q3 26 14 45q11 20 29 36q16 15 38 24 q23 10 46 10q20 0 42 -10q18 -8 32 -24t20 -36q7 -23 4 -45z" />
<glyph unicode="&#xdd;" horiz-adv-x="1333" d="M896 1467h494l-11 -88q-5 -33 -31 -37q-27 -4 -111 -24l-538 -734l-53 -434q14 -3 114 -24q31 -6 26 -38l-11 -88h-147h-198h-147l11 88q5 32 35 38l120 24l53 434l-356 734q-74 18 -102 24t-24 37l11 88h493l-10 -88q-5 -32 -37 -38q-113 -22 -119 -23l218 -467 q24 -53 43 -130q39 81 74 130l332 467q-6 1 -114 23q-31 6 -26 38zM1103 1825l-328 -221q-21 -13 -33 -17t-36 -4h-141l242 208q10 8 21 16q9 6 19 11q6 3 21 5q16 2 29 2h206z" />
<glyph unicode="&#xde;" horiz-adv-x="1131" d="M267 279l-35 -279h-197l180 1467h198l-34 -270h236q142 0 238 -32q101 -33 159 -92q62 -62 84 -143q22 -83 10 -188q-12 -100 -59 -187q-46 -84 -123 -146q-76 -61 -183 -96q-105 -34 -239 -34h-235zM286 436h236q83 0 152 23q68 23 117 63q50 41 79 96q27 52 37 124 q17 141 -59 220q-75 78 -252 78h-236z" />
<glyph unicode="&#xdf;" horiz-adv-x="1107" d="M709 1489q103 0 179 -31q73 -30 118 -78q46 -49 62 -104q16 -56 10 -109q-7 -60 -35 -105t-64 -78q-35 -32 -79 -59q-6 -3 -77 -51q-33 -22 -61 -50q-24 -24 -29 -59q-5 -41 19 -67q22 -25 62 -49q41 -25 83 -47q45 -24 81 -60t57 -88q21 -53 11 -132q-11 -82 -47 -143 q-38 -64 -93 -106q-58 -44 -128 -66q-74 -23 -153 -23q-102 0 -176 35q-78 37 -131 91l50 69q10 13 23 21q11 7 30 7q20 0 37 -14q2 -2 45 -32q21 -15 62 -32q34 -14 91 -14q44 0 83 14q37 13 65 37q29 24 46 56t22 71q7 55 -18 93q-25 37 -64 62q-52 33 -87 48 q-48 21 -87 51t-63 72t-15 110q6 54 35 95q30 42 66 73q36 30 82 59q32 20 81 59q39 31 66 67t33 85q4 32 -5 66t-34 60q-26 28 -69 44q-45 17 -108 17q-66 0 -129 -22q-61 -21 -105 -64q-47 -45 -76 -108t-40 -150l-124 -1010h-183l124 1016q14 108 59 193q47 87 120 150 q71 61 169 96q95 34 209 34z" />
<glyph unicode="&#xe0;" horiz-adv-x="1047" d="M700 2q-61 0 -61 63l18 208q-116 -205 -269 -265q-50 -20 -108 -20q-138 0 -205 102t-67 263q0 279 191 488q194 213 466 213q143 0 253 -49l-105 -854q2 0 54 -10.5t62 -12.5q13 -3 22 -13.5t9 -24.5v-88h-165h-95zM684 549l44 351q-22 18 -44 18h-44q-184 0 -317 -160 t-133 -373q0 -246 158 -246q99 0 190 116q88 111 146 294zM480 1484q33 0 49 -11q14 -10 26 -34l122 -248h-104q-20 0 -34 7q-12 6 -25 22l-207 264h173z" />
<glyph unicode="&#xe1;" horiz-adv-x="1047" d="M700 2q-61 0 -61 63l18 208q-116 -205 -269 -265q-50 -20 -108 -20q-138 0 -205 102t-67 263q0 279 191 488q194 213 466 213q143 0 253 -49l-105 -854q2 0 54 -10.5t62 -12.5q13 -3 22 -13.5t9 -24.5v-88h-165h-95zM684 549l44 351q-22 18 -44 18h-44q-184 0 -317 -160 t-133 -373q0 -246 158 -246q99 0 190 116q88 111 146 294zM878 1484l-271 -264q-19 -17 -31 -22q-18 -7 -36 -7h-108l181 248q15 22 36 34q19 11 51 11h178z" />
<glyph unicode="&#xe2;" horiz-adv-x="1048" d="M701 2q-61 0 -61 63l18 208q-116 -205 -269 -265q-50 -20 -108 -20q-138 0 -205 102t-67 263q0 279 191 488q194 213 466 213q144 0 254 -49l-106 -854q2 0 54 -10.5t62 -12.5q13 -3 22 -13.5t9 -24.5v-88h-165h-95zM685 549l44 351q-23 18 -44 18h-44q-184 0 -317 -160 t-133 -373q0 -246 158 -246q99 0 190 116q88 111 146 294zM860 1197h-122q-22 0 -39 14l-115 129l-15 18l-19 -18l-148 -129q-10 -6 -18 -9q-13 -5 -24 -5h-126l261 270h170z" />
<glyph unicode="&#xe3;" horiz-adv-x="1052" d="M702 2q-61 0 -61 63l18 208q-116 -205 -269 -265q-50 -20 -108 -20q-138 0 -205 102t-67 263q0 279 191 488q194 213 466 213q144 0 254 -49l-106 -854q2 0 54 -10.5t62 -12.5q13 -3 22 -13.5t9 -24.5v-88h-165h-95zM686 549l44 351q-22 18 -44 18h-44q-184 0 -317 -160 q-132 -159 -132 -373q0 -246 157 -246q99 0 190 116q88 111 146 294zM683 1357q37 0 60 21t29 67h111q-6 -49 -24 -89t-45 -69q-24 -25 -63 -44q-33 -16 -76 -16q-36 0 -66 15q-33 17 -55 32q-8 5 -16 10.5t-17.5 12t-14.5 9.5q-23 15 -46 15q-74 0 -87 -90h-114q5 45 25 89 q19 43 46 70q29 29 64 45t76 16q35 0 65 -15q33 -17 55 -32q8 -5 16 -10.5t17.5 -12t14.5 -9.5q22 -15 45 -15z" />
<glyph unicode="&#xe4;" horiz-adv-x="1050" d="M701 2q-61 0 -61 63l18 208q-116 -205 -269 -265q-50 -20 -108 -20q-138 0 -205 102t-67 263q0 279 191 488q194 213 466 213q144 0 254 -49l-106 -854q2 0 54 -10.5t62 -12.5q13 -3 22 -13.5t9 -24.5v-88h-165h-95zM685 549l44 351q-23 18 -44 18h-44q-184 0 -317 -160 t-133 -373q0 -246 158 -246q99 0 190 116q88 111 146 294zM495 1320q-3 -25 -14 -44q-12 -21 -30 -36q-20 -17 -41 -25q-22 -9 -45 -9t-42 9q-18 8 -33 25q-16 17 -21 36q-7 23 -4 44q3 24 15 45q11 20 30 37q17 16 39 25q23 10 44 10t43 -10q21 -10 35 -25q15 -17 21 -37 q6 -21 3 -45zM863 1320q-3 -23 -15 -44q-13 -23 -29 -36q-21 -17 -40 -25q-23 -9 -46 -9q-24 0 -43 9q-18 8 -33 25q-14 16 -20 36q-7 23 -4 44q3 26 14 45q11 20 30 37q18 17 39 25q25 10 46 10t43 -10t34 -25q14 -18 20 -37q7 -23 4 -45z" />
<glyph unicode="&#xe5;" horiz-adv-x="1045" d="M699 2q-61 0 -61 63l18 208q-116 -205 -269 -265q-50 -20 -108 -20q-138 0 -205 102t-67 263q0 279 191 488q194 213 466 213q143 0 253 -49l-105 -854q2 0 54 -10.5t62 -12.5q13 -3 22 -13.5t9 -24.5v-88h-165h-95zM683 549l44 351q-23 18 -45 18h-43q-184 0 -317 -160 t-133 -373q0 -246 158 -246q99 0 190 116q88 111 146 294zM357 1347q6 44 26 77q23 37 52 61q32 26 70 39q40 14 80 14t77 -14t62 -39q24 -24 37 -61q13 -36 7 -77q-4 -42 -26 -77q-23 -38 -52 -60q-32 -25 -71 -38q-40 -14 -81 -14q-40 0 -76 14q-34 13 -60 38 q-25 24 -38 60q-12 34 -7 77zM460 1347q-6 -45 18 -74t73 -29q45 0 77 29t38 74t-19 74q-24 29 -71 29t-79 -29q-31 -28 -37 -74z" />
<glyph unicode="&#xe6;" horiz-adv-x="1469" d="M1121 1052q63 0 114 -19q54 -20 91 -53t59 -80t22 -98q0 -59 -28 -114q-29 -56 -98 -99q-68 -42 -190 -71t-303 -29q-1 -7 -1 -20v-21q0 -160 63 -239q63 -80 173 -80q52 0 89 10q39 11 68 25q31 16 53 33q9 7 25.5 19.5t17.5 13.5q21 16 35 25q16 10 32 10q21 0 35 -17 l45 -57q-48 -50 -102 -92q-49 -39 -101 -64q-50 -24 -110 -37q-57 -12 -122 -12q-109 0 -189 58q-81 58 -121 175q-33 -63 -78 -108q-43 -43 -97 -73q-50 -28 -106 -42q-48 -12 -104 -12q-137 0 -210 61q-74 62 -74 185q0 72 33 138q33 67 106 117q74 52 194 83 q122 32 295 32q2 11 4 29t3 24q1 8 2 19.5t1 14.5q2 18 2 23v16q0 184 -158 184q-59 0 -104 -17q-44 -17 -76 -37l-57 -38q-25 -17 -47 -17q-19 0 -31 9t-18 23l-24 56q83 79 180 124q90 42 197 42q109 0 173 -50q62 -49 85 -137q61 87 150 135q90 49 202 49zM624 488 q-125 0 -208 -19q-88 -20 -138 -50q-54 -33 -76 -73q-23 -43 -23 -93q0 -74 40 -110q39 -35 107 -35q57 0 101 18q46 19 86 57q38 36 65 94q26 54 35 132zM1099 922q-61 0 -112 -23q-49 -22 -87 -65q-37 -41 -63 -103q-27 -63 -38 -132q127 0 219 19q87 18 138 45 q50 27 71 59q20 31 20 70q0 60 -38 94q-41 36 -110 36z" />
<glyph unicode="&#xe7;" horiz-adv-x="903" d="M770 212l44 -67q-131 -140 -354 -157l-24 -60q91 -21 126 -55q38 -36 32 -80q-6 -46 -25 -70q-22 -29 -50 -45q-64 -37 -166 -37q-79 0 -145 31l24 57q9 18 26 18q2 0 14 -4t18 -7q27 -12 67 -12q41 0 64 16q24 16 27 40q3 22 -7 37q-8 12 -29 22q-33 15 -118 27l53 124 q-156 21 -244 136q-114 146 -84 393q30 240 173 383q150 152 381 152q118 0 298 -77l-33 -268h-82q-31 0 -32 28q-1 9 2 77q3 66 3 69q-35 12 -73 18q-58 10 -114 9t-116 -27q-58 -25 -106 -77q-91 -103 -114 -287q-23 -187 46 -291q67 -101 208 -101q127 0 239 86 q20 16 41 16q22 0 30 -17z" />
<glyph unicode="&#xe8;" horiz-adv-x="878" d="M822 191q-46 -47 -85 -79.5t-92 -63.5t-117.5 -46.5t-140.5 -15.5q-138 0 -227 65.5t-128 180.5q-27 78 -27 175q0 253 145 443q152 202 394 202q105 0 179.5 -41.5t105.5 -115.5q18 -42 18 -80q0 -82 -32 -134.5t-97 -92.5q-72 -44 -203 -79q-120 -32 -332 -54 q-1 -8 -1 -22v-22q0 -282 241 -282q122 0 209 68q56 43 79 58q16 10 32 10q20 0 34 -17zM684 808q0 54 -43.5 83.5t-107.5 29.5q-187 0 -286 -210q-29 -60 -46 -136q159 20 253 45q95 26 146 54q43 25 63.5 55t20.5 79zM454 1484q33 0 49 -11q15 -11 27 -34l122 -248h-105 q-20 0 -34 7q-12 6 -25 22l-207 264h173z" />
<glyph unicode="&#xe9;" horiz-adv-x="886" d="M822 191q-46 -47 -85 -79.5t-92 -63.5t-117.5 -46.5t-140.5 -15.5q-138 0 -227 65.5t-128 180.5q-27 78 -27 175q0 253 145 443q152 202 394 202q105 0 179.5 -41.5t105.5 -115.5q18 -42 18 -80q0 -82 -32 -134.5t-97 -92.5q-72 -44 -203 -79q-120 -32 -332 -54 q-1 -8 -1 -22v-22q0 -282 241 -282q122 0 209 68q56 43 79 58q16 10 32 10q20 0 34 -17zM684 808q0 54 -43.5 83.5t-107.5 29.5q-187 0 -286 -210q-29 -60 -46 -136q159 20 253 45q95 26 146 54q43 25 63.5 55t20.5 79zM853 1484l-271 -264q-19 -17 -31 -22q-18 -7 -36 -7 h-109l182 248q16 23 35 34t51 11h179z" />
<glyph unicode="&#xea;" horiz-adv-x="882" d="M823 191q-46 -47 -85 -79.5t-92 -63.5t-117.5 -46.5t-140.5 -15.5q-138 0 -227 65.5t-128 180.5q-27 78 -27 175q0 253 145 443q152 202 394 202q105 0 179.5 -41.5t105.5 -115.5q18 -42 18 -80q0 -82 -32 -134.5t-97 -92.5q-72 -44 -203 -79q-120 -32 -332 -54 q-1 -8 -1 -22v-22q0 -282 241 -282q122 0 209 68q56 43 79 58q16 10 32 10q20 0 34 -17zM685 808q0 54 -43 83.5t-107 29.5q-188 0 -287 -210q-29 -60 -46 -136q159 20 253 45q95 26 146 54q43 25 63.5 55t20.5 79zM836 1197h-122q-22 0 -39 14l-115 129l-16 18l-18 -18 l-148 -129q-8 -5 -19 -9q-13 -5 -24 -5h-126l262 270h170z" />
<glyph unicode="&#xeb;" horiz-adv-x="896" d="M825 191q-46 -47 -85 -79.5t-92 -63.5t-117.5 -46.5t-140.5 -15.5q-138 0 -227 65.5t-128 180.5q-27 78 -27 175q0 253 145 443q152 202 394 202q105 0 179.5 -41.5t105.5 -115.5q18 -42 18 -80q0 -82 -32 -134.5t-97 -92.5q-72 -44 -203 -79q-120 -32 -332 -54 q-1 -8 -1 -22v-22q0 -282 241 -282q122 0 209 68q56 43 79 58q16 10 32 10q20 0 34 -17zM687 808q0 54 -43 83.5t-107 29.5q-188 0 -287 -210q-29 -60 -46 -136q159 20 253 45q95 26 146 54q43 25 63.5 55t20.5 79zM472 1320q-3 -23 -15 -44t-30 -36q-21 -17 -40 -25 q-23 -9 -46 -9t-42 9q-18 8 -33 25q-16 17 -21 36q-6 21 -3 44q3 26 14 45q11 20 30 37q16 15 40 25q23 10 44 10t43 -10q19 -9 34 -25q15 -17 21 -37q7 -23 4 -45zM840 1320q-3 -23 -15 -44q-13 -23 -29 -36q-21 -17 -40 -25q-22 -9 -46 -9t-43 9q-20 9 -34 25t-20 36 q-7 23 -4 44q3 24 15 45q13 22 29 37q17 16 40 25q25 10 45 10q22 0 44 -10q20 -9 33 -25q16 -20 21 -37q7 -23 4 -45z" />
<glyph unicode="&#xec;" horiz-adv-x="522" d="M415 126q30 -7 27 -38l-11 -88h-330l18 149l91 739q-96 19 -114 23q-29 7 -26 38l11 88h330l-109 -888q95 -19 113 -23zM372 1191q-23 0 -34.5 6.5t-24.5 22.5l-207 264h173q33 0 48.5 -10t27.5 -35l122 -248h-105z" />
<glyph unicode="&#xed;" horiz-adv-x="584" d="M388 126q29 -7 26 -38l-10 -88h-331l19 149l91 739q-96 19 -114 23q-30 7 -27 38l11 88h330l-109 -888q96 -19 114 -23zM380 1220q-32 -29 -67 -29h-109l182 248q18 24 36 34.5t51 10.5h178z" />
<glyph unicode="&#xee;" horiz-adv-x="581" d="M412 126q30 -7 27 -38l-11 -88h-330l18 149l91 739q-96 19 -114 23q-29 7 -26 38l10 88h330l-109 -888q96 -19 114 -23zM196 1211q-18 -14 -42 -14h-126l261 270h170l195 -270h-122q-22 0 -39 14q-21 24 -64.5 73t-65.5 74q-31 -29 -90 -80t-77 -67z" />
<glyph unicode="&#xef;" horiz-adv-x="637" d="M450 126q30 -7 27 -38l-11 -88h-330l18 149l91 739q-96 19 -114 23q-29 7 -26 38l10 88h330l-109 -888q96 -19 114 -23zM690 1365q7 -23 4 -45q-3 -25 -14 -44q-12 -21 -30 -36q-21 -17 -40 -25q-22 -9 -46 -9t-43 9q-18 8 -33 25q-14 16 -20 36q-7 23 -4 44q3 26 14 45 q11 20 30 37q18 17 39 25q25 10 46 10t43 -10t34 -25q14 -18 20 -37zM196 1206q-22 0 -42 9q-18 8 -33 25q-16 17 -21 36q-7 23 -4 44q3 24 15 45q11 20 30 37q17 16 39 25q23 10 44 10q22 0 44 -10q19 -9 34 -25q15 -17 21 -37q7 -23 4 -45q-3 -23 -15 -44t-30 -36 q-20 -17 -41 -25q-22 -9 -45 -9z" />
<glyph unicode="&#xf0;" horiz-adv-x="1050" d="M427 1091q-5 12 -5 13q-2 8 -1 13q3 23 29 38l114 74q-35 17 -93 38q-31 11 -106 31q-18 4 -29 19q-11 14 -8 38q1 14 9 29l28 64q94 -16 185 -47q87 -29 165 -80l186 125l29 -58q6 -14 5 -25q-3 -22 -27 -38l-108 -69q52 -46 98 -113q43 -63 69 -143q26 -82 35 -174 q8 -88 -6 -208q-18 -147 -64 -263t-119 -198q-74 -83 -172 -126q-100 -44 -222 -44q-104 0 -183 33q-84 35 -140 97q-55 61 -81 154q-26 92 -12 206q12 97 54 182t110 150q67 65 156 102q90 38 196 38q101 0 187 -44q85 -43 141 -133q-3 140 -51 237q-47 96 -136 162 l-206 -138zM440 128q70 0 135 28q62 27 111 83q47 54 82 140q34 83 51 199q-10 41 -32 85q-20 39 -56 74q-31 30 -83 51q-47 19 -112 19q-75 0 -138 -26q-60 -25 -105 -70q-46 -46 -72 -105q-27 -61 -36 -131q-10 -82 5 -148t51 -109q37 -45 87 -67q52 -23 112 -23z" />
<glyph unicode="&#xf1;" horiz-adv-x="1173" d="M1067 126q32 -6 27 -38l-11 -88h-331l81 660q30 248 -187 248q-152 0 -299 -144l-93 -764h-183l109 888q-25 5 -53.5 10.5t-42 8.5t-18.5 4q-31 6 -26 38l11 88h256q39 0 45 -38v-112q173 167 365 167q166 0 243.5 -106t55.5 -288l-63 -511q111 -22 114 -23zM780 1357 q36 0 59 21t29 67h111q-6 -49 -24 -89t-45 -69q-24 -25 -63 -44q-33 -16 -76 -16q-35 0 -65 15q-33 17 -55 32q-10 7 -27.5 18t-21.5 14q-23 15 -46 15q-74 0 -87 -90h-113q6 48 24 89q19 43 46 70q29 29 64 45t76 16q35 0 65 -15q33 -17 55 -32q8 -5 16 -10.5t17.5 -12 t14.5 -9.5q22 -15 46 -15z" />
<glyph unicode="&#xf2;" horiz-adv-x="1045" d="M572 1054q113 0 201 -38q84 -36 142 -108q55 -69 78 -168q22 -98 7 -221t-61 -221t-119 -168q-72 -69 -169 -107q-95 -37 -210 -37q-114 0 -200 37q-87 38 -143 107q-57 71 -79 168q-23 100 -8 221t62 221q47 99 120 168q77 72 169 108q97 38 210 38zM459 128 q154 0 242 103q89 104 111 287q22 185 -41 289q-63 103 -216 103q-81 0 -139 -26q-59 -27 -105 -77q-42 -47 -72 -123q-28 -71 -40 -166q-12 -90 -1 -165q11 -76 42 -122q32 -49 87 -76q54 -27 132 -27zM525 1484q33 0 49 -11q14 -10 26 -34l122 -248h-104q-20 0 -34 7 q-12 6 -25 22l-207 264h173z" />
<glyph unicode="&#xf3;" horiz-adv-x="1046" d="M572 1054q113 0 201 -38q84 -36 142 -108q55 -69 78 -168q22 -98 7 -221t-61 -221t-119 -168q-72 -69 -169 -107q-95 -37 -210 -37q-114 0 -200 37q-87 38 -143 107q-57 71 -79 168q-23 100 -8 221t62 221q47 99 120 168q77 72 169 108q97 38 210 38zM459 128 q154 0 242 103q89 104 111 287q22 185 -41 289q-63 103 -216 103q-81 0 -139 -26q-59 -27 -105 -77q-42 -47 -72 -123q-28 -71 -40 -166q-12 -90 -1 -165q11 -76 42 -122q32 -49 87 -76q54 -27 132 -27zM924 1484l-271 -264q-19 -17 -31 -22q-18 -7 -36 -7h-108l182 248 q16 23 35 34t51 11h178z" />
<glyph unicode="&#xf4;" horiz-adv-x="1045" d="M572 1054q113 0 201 -38q84 -36 142 -108q55 -69 78 -168q22 -98 7 -221t-61 -221t-119 -168q-72 -69 -169 -107q-95 -37 -210 -37q-114 0 -200 37q-87 38 -143 107q-57 71 -79 168q-23 100 -8 221t62 221q47 99 120 168q77 72 169 108q97 38 210 38zM459 128 q154 0 242 103q89 104 111 287q22 185 -41 289q-63 103 -216 103q-81 0 -139 -26q-59 -27 -105 -77q-42 -47 -72 -123q-28 -71 -40 -166q-12 -90 -1 -165q11 -76 42 -122q32 -49 87 -76q54 -27 132 -27zM904 1197h-121q-23 0 -40 14l-115 129l-15 18l-19 -18l-148 -129 q-10 -6 -18 -9q-13 -5 -24 -5h-126l261 270h170z" />
<glyph unicode="&#xf5;" horiz-adv-x="1050" d="M573 1054q113 0 201 -38q86 -37 143 -108q54 -67 77 -168q22 -98 7 -221t-61 -221t-119 -168q-72 -69 -169 -107q-95 -37 -210 -37q-114 0 -200 37q-87 38 -143 107q-57 71 -79 168q-23 100 -8 221t62 221q46 99 120 168q77 72 169 108q97 38 210 38zM460 128 q154 0 242 103q89 104 111 287q22 185 -41 289q-63 103 -216 103q-81 0 -139 -26q-59 -27 -105 -77q-42 -47 -72 -123q-28 -71 -40 -166q-12 -90 -1 -165q11 -76 42 -122q33 -49 87 -76t132 -27zM725 1357q37 0 60 21t29 67h111q-6 -49 -24 -89t-45 -69q-24 -25 -63 -44 q-33 -16 -76 -16q-36 0 -66 15q-33 17 -55 32q-8 5 -16 10.5t-17.5 12t-14.5 9.5q-23 15 -46 15q-74 0 -87 -90h-114q5 45 25 89q19 43 46 70q29 29 64 45t76 16q35 0 65 -15q33 -17 55 -32q8 -5 16 -10.5t17.5 -12t14.5 -9.5q22 -15 45 -15z" />
<glyph unicode="&#xf6;" horiz-adv-x="1047" d="M572 1054q113 0 201 -38q84 -36 142 -108q55 -69 78 -168q22 -98 7 -221t-61 -221t-119 -168q-72 -69 -169 -107q-95 -37 -210 -37q-114 0 -200 37q-87 38 -143 107q-57 71 -79 168q-23 100 -8 221t62 221q47 99 120 168q77 72 169 108q97 38 210 38zM459 128 q154 0 242 103q89 104 111 287q22 185 -41 289q-63 103 -216 103q-81 0 -139 -26q-59 -27 -105 -77q-42 -47 -72 -123q-28 -71 -40 -166q-12 -90 -1 -165q11 -76 42 -122q32 -49 87 -76q54 -27 132 -27zM537 1320q-3 -25 -14 -44q-12 -21 -30 -36q-20 -17 -41 -25 q-23 -9 -45 -9q-23 0 -42 9q-18 8 -33 25q-16 17 -21 36q-7 23 -4 44q3 24 15 45q11 20 30 37q17 16 39 25q23 10 44 10q22 0 44 -10q19 -9 34 -25q15 -17 21 -37q6 -21 3 -45zM905 1320q-3 -23 -15 -44q-13 -23 -29 -36q-21 -17 -40 -25q-22 -9 -46 -9q-23 0 -43 9 q-18 8 -33 25q-14 16 -20 36q-7 23 -4 44q3 26 14 45q11 20 30 37q18 17 39 25q25 10 46 10t43 -10t34 -25q14 -18 20 -37q7 -23 4 -45z" />
<glyph unicode="&#xf7;" horiz-adv-x="998" d="M14 757h981l-17 -139h-981zM412 1051q3 23 16 50q11 21 32 41q17 16 43 27q25 11 52 11q25 0 49 -11t37 -27q15 -18 22 -41t4 -50q-3 -30 -16 -51q-14 -24 -33 -41q-20 -18 -43 -27q-24 -9 -51 -9t-50 9q-20 8 -36 27q-14 17 -22 41q-7 22 -4 51zM323 322q3 23 16 50 q11 21 32 41q17 16 43 27q25 11 52 11q24 0 48 -11t37 -27q16 -20 23 -41q7 -23 4 -50q-3 -28 -17 -51q-15 -26 -32 -41q-19 -18 -44 -27q-24 -9 -51 -9q-26 0 -49 9q-22 9 -37 27q-14 17 -22 41q-6 19 -3 51z" />
<glyph unicode="&#xf8;" horiz-adv-x="1119" d="M956 905q53 -68 76 -167q22 -96 7 -219q-15 -120 -62 -221q-47 -100 -118 -168q-72 -69 -169 -107q-95 -37 -210 -37q-82 0 -143 17q-68 19 -116 50l-66 -76q-23 -27 -58 -42q-30 -13 -61 -13h-69l173 201q-58 69 -82 170q-23 96 -8 226q15 121 62 221q46 99 120 168 q77 72 169 108q97 38 210 38q80 0 148 -20t119 -55l81 93q26 29 42 40t51 11h92zM227 518q-20 -165 28 -263l521 604q-68 57 -182 57q-77 0 -140 -27q-62 -27 -110 -79q-45 -50 -76 -125q-28 -69 -41 -167zM497 123q78 0 139 27q63 28 109 78q45 50 76 125q29 70 41 165 q19 150 -23 253l-516 -599q65 -49 174 -49z" />
<glyph unicode="&#xf9;" horiz-adv-x="1167" d="M471 129q155 0 298 143l76 616q-1 0 -113 23q-32 6 -27 38l11 88h147h183l-110 -887q98 -20 114 -24q32 -6 27 -38l-10 -88h-257q-39 0 -45 38l-1 112q-169 -166 -364 -166q-167 0 -246 107q-75 103 -53 285l63 512q-25 5 -53.5 10.5t-42 8.5t-18.5 4q-31 6 -26 38l11 88 h330l-82 -661q-15 -117 32 -182t156 -65zM575 1484q33 0 49 -11q14 -10 26 -34l123 -248h-105q-20 0 -34 7q-12 6 -25 22l-207 264h173z" />
<glyph unicode="&#xfa;" horiz-adv-x="1167" d="M471 129q155 0 298 143l76 616q-1 0 -113 23q-32 6 -27 38l11 88h147h183l-110 -887q98 -20 114 -24q32 -6 27 -38l-10 -88h-257q-39 0 -45 38l-1 112q-169 -166 -364 -166q-167 0 -246 107q-75 103 -53 285l63 512q-25 5 -53.5 10.5t-42 8.5t-18.5 4q-31 6 -26 38l11 88 h330l-82 -661q-15 -117 32 -182t156 -65zM974 1484l-271 -264q-19 -17 -31 -22q-18 -7 -36 -7h-108l182 248q16 23 35 34t51 11h178z" />
<glyph unicode="&#xfb;" horiz-adv-x="1166" d="M471 129q155 0 298 143l76 616q-1 0 -113 23q-32 6 -27 38l11 88h147h183l-110 -887q98 -20 114 -24q32 -6 27 -38l-10 -88h-257q-39 0 -45 38l-1 112q-169 -166 -364 -166q-167 0 -246 107q-75 103 -53 285l63 512q-25 5 -53.5 10.5t-42 8.5t-18.5 4q-31 6 -26 38l11 88 h330l-82 -661q-15 -117 32 -182t156 -65zM955 1197h-122q-23 0 -40 14l-115 129l-15 18l-19 -18l-147 -129q-8 -5 -19 -9q-13 -5 -24 -5h-126l261 270h170z" />
<glyph unicode="&#xfc;" horiz-adv-x="1167" d="M471 129q155 0 298 143l76 616q-1 0 -113 23q-32 6 -27 38l11 88h147h183l-110 -887q98 -20 114 -24q32 -6 27 -38l-10 -88h-257q-39 0 -45 38l-1 112q-169 -166 -364 -166q-167 0 -246 107q-75 103 -53 285l63 512q-25 5 -53.5 10.5t-42 8.5t-18.5 4q-31 6 -26 38l11 88 h330l-82 -661q-15 -117 32 -182t156 -65zM588 1320q-3 -23 -15 -44t-30 -36q-21 -17 -40 -25q-22 -9 -46 -9q-23 0 -42 9q-18 8 -33 25q-16 17 -21 36q-7 23 -4 44q3 24 15 45q11 20 30 37q17 16 39 25q23 10 44 10q22 0 44 -10q19 -9 34 -25q15 -17 21 -37q7 -23 4 -45z M955 1320q-3 -25 -14 -44q-12 -21 -30 -36q-21 -17 -40 -25q-22 -9 -45 -9q-24 0 -44 9q-18 8 -33 25q-14 16 -20 36q-7 23 -4 44q3 24 15 45q12 22 29 37q18 17 39 25q25 10 46 10t43 -10t34 -25q16 -20 21 -37q6 -21 3 -45z" />
<glyph unicode="&#xfd;" horiz-adv-x="1136" d="M1098 1037h74l-10 -88q-5 -32 -36 -38q-2 0 -9 -1.5t-20 -4t-26 -5.5q-31 -6 -55 -10l-662 -1196q-26 -45 -71 -45h-135l240 411l-262 833q-20 4 -41.5 8t-33 6.5t-16.5 3.5q-31 6 -26 38l10 88h465l-10 -88q-5 -32 -36 -38q-12 -3 -115 -22l164 -543q11 -38 16 -91 q27 63 42 92l291 542q-29 6 -65 13t-45 9q-29 6 -24 38l11 88h385zM965 1484l-271 -264q-19 -17 -31 -22q-17 -7 -36 -7h-108l182 248q16 23 35 34t51 11h178z" />
<glyph unicode="&#xfe;" horiz-adv-x="1057" d="M-11 -351l228 1859h182l-76 -621q73 76 163 121q92 46 197 46q90 0 158 -34q69 -35 112 -101q43 -67 58 -166q16 -104 0 -228q-13 -114 -57 -213q-44 -100 -109 -171q-66 -72 -155 -114q-86 -41 -193 -41q-99 0 -160 35q-64 36 -108 100l-58 -472h-182zM605 908 q-88 0 -161 -41t-138 -115l-61 -502q43 -69 98 -95q59 -28 130 -28q145 0 235 103q90 104 114 295q12 106 4 174q-9 75 -37 120q-29 47 -75 68t-109 21z" />
<glyph unicode="&#xff;" horiz-adv-x="1136" d="M1098 1037h74l-10 -88q-5 -32 -36 -38q-2 0 -9 -1.5t-20 -4t-26 -5.5q-31 -6 -55 -10l-662 -1196q-26 -45 -71 -45h-135l240 411l-262 833q-20 4 -41.5 8t-33 6.5t-16.5 3.5q-31 6 -26 38l10 88h465l-10 -88q-5 -32 -36 -38q-12 -3 -115 -22l164 -543q11 -38 16 -91 q27 63 42 92l291 542q-29 6 -65 13t-45 9q-29 6 -24 38l11 88h385zM578 1320q-3 -25 -14 -44q-12 -21 -30 -36q-20 -17 -41 -25q-22 -9 -45 -9q-22 0 -42 9q-18 8 -33 25q-16 17 -21 36q-7 23 -4 44q3 24 15 45q13 22 29 37t40 25q23 10 44 10t43 -10q21 -10 35 -25 q15 -17 21 -37q6 -21 3 -45zM946 1320q-3 -23 -15 -44q-13 -23 -29 -36q-21 -17 -40 -25q-23 -9 -46 -9q-24 0 -43 9q-18 8 -33 25q-16 17 -21 36q-6 21 -3 44q3 26 14 45q11 20 30 37q18 17 39 25q25 10 46 10t43 -10t34 -25q14 -18 20 -37q7 -23 4 -45z" />
<glyph unicode="&#x152;" horiz-adv-x="2135" d="M1997 1306h-548l-60 -488h540l-19 -155h-540l-62 -501h550q29 139 31 145q12 35 46 35h100l-42 -342h-881l30 246q-100 -123 -239 -192q-136 -68 -294 -68q-159 0 -268 54q-115 57 -187 154q-74 100 -104 237q-30 136 -10 302q20 165 84 303t162 237q207 211 497 211 q165 0 287 -69t192 -193l30 245h881l-20 -161l-24 -193h-99q-35 0 -38 36q-1 7 5 157zM1116 490q46 108 63 243t-3 243q-19 106 -71 184q-49 74 -134 116q-82 41 -188 41q-105 0 -198 -41t-162 -116q-71 -77 -117 -184q-46 -108 -63 -243t3 -243t72 -183q53 -75 134 -116 q78 -39 188 -39t198 39q91 40 162 116q69 73 116 183z" />
<glyph unicode="&#x153;" horiz-adv-x="1564" d="M1226 1052q65 0 119 -18q57 -20 92 -49q37 -33 57 -78q20 -46 20 -99q0 -45 -11 -81q-11 -37 -41 -73q-28 -34 -76 -65q-50 -32 -118 -55q-76 -26 -169 -44q-86 -17 -227 -32v-12q0 -158 62 -238q61 -79 174 -79q50 0 87 10q41 11 69 25q31 16 53 33q9 7 25.5 19.5 t17.5 13.5q21 16 35 25q16 10 32 10q21 0 35 -17l45 -57q-46 -49 -101 -92q-49 -39 -101 -64q-50 -24 -110 -37q-57 -12 -123 -12q-109 0 -189 59q-81 60 -121 177q-70 -112 -176 -174t-238 -62q-82 0 -145 30q-60 29 -104 82q-42 51 -63 119q-21 67 -21 141q0 168 44 298 q44 129 118 217q74 89 172 134q97 45 207 45q108 0 183 -52q72 -50 109 -145q64 91 160 144q95 53 218 53zM391 124q83 0 147 40q66 41 108 111t65 169q22 95 22 213q0 119 -47 187q-48 69 -147 69q-81 0 -144 -39q-62 -39 -108 -110q-45 -70 -69 -171t-24 -224 q0 -52 10 -93q10 -43 34 -77t61 -55q36 -20 92 -20zM1197 923q-60 0 -113 -24q-52 -24 -93 -69q-39 -44 -69 -111q-29 -66 -41 -148q140 17 242 45q94 26 147 56q52 30 72 63q20 34 20 67q0 23 -10 46q-8 20 -30 38q-22 19 -51 27q-35 10 -74 10z" />
<glyph unicode="&#x178;" horiz-adv-x="1333" d="M896 1467h494l-11 -88q-5 -33 -31 -37q-27 -4 -111 -24l-538 -734l-53 -434q14 -3 114 -24q31 -6 26 -38l-11 -88h-147h-198h-147l11 88q5 32 35 38l120 24l53 434l-356 734q-74 18 -102 24t-24 37l11 88h493l-10 -88q-5 -32 -37 -38q-113 -22 -119 -23l218 -467 q24 -53 43 -130q39 81 74 130l332 467q-6 1 -114 23q-31 6 -26 38zM635 1706q-3 -24 -15 -43q-12 -20 -29 -35t-39 -24q-23 -9 -46 -9q-20 0 -40 9t-33 24q-11 13 -20 35q-7 19 -4 43t15 45q11 20 29 36q16 15 38 24q23 10 43 10q21 0 43 -10q21 -10 34 -24q14 -16 20 -36 q7 -23 4 -45zM1071 1706q-3 -24 -15 -43q-12 -20 -29 -35q-16 -15 -38 -24q-21 -9 -44 -9t-43 9t-33 24q-14 16 -20 35q-7 22 -4 43q3 24 15 45q13 22 28 36t39 24q23 10 45 10q20 0 42 -10q20 -9 33 -24q14 -16 20 -36q7 -23 4 -45z" />
<glyph unicode="&#x2c6;" horiz-adv-x="781" d="M716 1197h-122q-22 0 -39 14l-116 129l-15 18l-18 -18l-148 -129q-8 -5 -19 -9q-13 -5 -24 -5h-126l262 270h170z" />
<glyph unicode="&#x2dc;" horiz-adv-x="815" d="M542 1357q36 0 59 21t29 67h111q-6 -49 -24 -89t-45 -69q-24 -25 -63 -44q-33 -16 -76 -16q-35 0 -65 15q-33 17 -55 32q-8 5 -16 10.5t-17.5 12t-14.5 9.5q-23 15 -47 15q-74 0 -87 -90h-113q6 48 24 89t47 70q30 30 63 45q35 16 76 16q35 0 65 -15q33 -17 55 -32 q8 -5 16 -10.5t17.5 -12t14.5 -9.5q22 -15 46 -15z" />
<glyph unicode="&#x2000;" horiz-adv-x="940" />
<glyph unicode="&#x2001;" horiz-adv-x="1881" />
<glyph unicode="&#x2002;" horiz-adv-x="940" />
<glyph unicode="&#x2003;" horiz-adv-x="1881" />
<glyph unicode="&#x2004;" horiz-adv-x="627" />
<glyph unicode="&#x2005;" horiz-adv-x="470" />
<glyph unicode="&#x2006;" horiz-adv-x="313" />
<glyph unicode="&#x2007;" horiz-adv-x="313" />
<glyph unicode="&#x2008;" horiz-adv-x="235" />
<glyph unicode="&#x2009;" horiz-adv-x="376" />
<glyph unicode="&#x200a;" horiz-adv-x="104" />
<glyph unicode="&#x2010;" d="M127 691h505l-19 -154h-505z" />
<glyph unicode="&#x2011;" d="M127 691h505l-19 -154h-505z" />
<glyph unicode="&#x2012;" d="M127 691h505l-19 -154h-505z" />
<glyph unicode="&#x2013;" horiz-adv-x="1046" d="M124 671h819l-16 -133h-819z" />
<glyph unicode="&#x2014;" horiz-adv-x="1589" d="M124 671h1362l-17 -133h-1361z" />
<glyph unicode="&#x2018;" horiz-adv-x="432" d="M148 1036q-23 48 -31 99t-2 99q12 92 68 177q56 84 146 155l52 -35q7 -4 9 -11q3 -10 2 -13q-1 -13 -14 -24q-19 -20 -37 -43q-18 -22 -33 -48q-16 -27 -26 -53q-9 -22 -14 -58q-5 -35 1 -68q7 -38 24 -73q6 -11 4 -24q-3 -25 -31 -35z" />
<glyph unicode="&#x2019;" horiz-adv-x="425" d="M330 1544q23 -48 31 -98q8 -51 2 -98q-12 -93 -68 -178q-57 -86 -145 -155l-52 35q-9 5 -10 11q-2 8 -1 12q1 14 14 25q12 12 36 42q22 27 34 48q16 27 26 53q9 22 14 58q5 35 -1 68q-7 40 -24 74q-6 13 -5 22q3 24 32 36z" />
<glyph unicode="&#x201a;" horiz-adv-x="453" d="M297 247q23 -48 31 -99q7 -47 1 -98q-12 -92 -68 -177q-58 -88 -145 -156l-52 35q-7 4 -9 11q-3 11 -2 13q1 13 14 24q13 13 37 43q18 23 33 48q16 27 26 53t15 58q4 32 -2 68q-7 38 -24 73q-6 13 -5 23q3 23 33 36z" />
<glyph unicode="&#x201c;" horiz-adv-x="743" d="M148 1036q-23 48 -31 99t-2 99q12 92 68 177q56 84 146 155l52 -35q7 -4 9 -11q3 -10 2 -13q-1 -13 -14 -24q-19 -20 -37 -43q-18 -22 -33 -48q-16 -27 -26 -53q-9 -22 -14 -58q-5 -35 1 -68q7 -38 24 -73q6 -11 4 -24q-3 -25 -31 -35zM460 1036q-25 51 -32 99t-1 99 q12 94 67 177q56 84 146 155l52 -35q9 -5 10 -11q2 -8 1 -13q-1 -14 -13 -24q-19 -20 -37 -43q-22 -27 -34 -48q-16 -27 -26 -53q-9 -22 -14 -58q-5 -35 1 -68q7 -38 24 -73q6 -13 5 -24q-3 -24 -32 -35z" />
<glyph unicode="&#x201d;" d="M330 1544q23 -48 31 -98q8 -51 2 -98q-12 -93 -68 -178q-57 -86 -145 -155l-52 35q-9 5 -10 11q-2 8 -1 12q1 14 14 25q12 12 36 42q22 27 34 48q16 27 26 53q9 22 14 58q5 35 -1 68q-7 40 -24 74q-6 13 -5 22q3 24 32 36zM642 1544q23 -48 31 -98q7 -47 1 -98 q-12 -95 -67 -178q-56 -84 -146 -155l-52 35q-7 4 -9 11q-2 8 -1 12q1 15 13 25q17 17 37 42q18 22 33 48q16 27 26 53t15 58q4 32 -2 68q-7 40 -24 74q-6 11 -4 22q3 24 32 36z" />
<glyph unicode="&#x201e;" horiz-adv-x="764" d="M297 247q23 -48 31 -99q7 -47 1 -98q-12 -92 -68 -177q-58 -88 -145 -156l-52 35q-7 4 -9 11q-3 11 -2 13q1 13 14 24q13 13 37 43q18 23 33 48q16 27 26 53t15 58q4 32 -2 68q-7 38 -24 73q-6 13 -5 23q3 23 33 36zM608 247q23 -48 31 -99q7 -47 1 -98q-12 -94 -67 -177 q-57 -86 -146 -156l-52 35q-7 4 -9 11q-2 9 -1 13q1 14 13 24q13 13 37 43q22 27 34 48q13 22 25 53q10 26 15 58q4 32 -2 68q-7 38 -24 73q-5 11 -4 23q3 24 32 36z" />
<glyph unicode="&#x2022;" horiz-adv-x="921" d="M78 609q9 80 48 149q40 71 96 121q59 52 131 82q73 30 151 30t144 -30t112 -82t67 -121t12 -149q-9 -77 -49 -148q-40 -72 -96 -120q-58 -51 -132 -81q-76 -31 -152 -31q-75 0 -143 31q-66 30 -111 81t-66 120t-12 148z" />
<glyph unicode="&#x2026;" horiz-adv-x="1511" d="M83 113q3 23 16 50q11 21 32 41q18 17 43 27q27 11 52 11t49 -11t37 -27q15 -18 22 -41t4 -50t-16 -51q-11 -21 -32 -40t-44 -28q-24 -9 -52 -9q-26 0 -49 9q-21 8 -37 28q-13 15 -21 40q-7 22 -4 51zM1137 113q3 23 16 50q11 23 31 41q17 16 44 27t52 11q24 0 48 -11 q25 -12 38 -27q15 -18 22 -41t4 -50t-16 -51q-11 -21 -32 -40q-20 -19 -45 -28q-24 -9 -51 -9q-26 0 -49 9q-21 8 -37 28q-14 17 -22 40q-6 20 -3 51zM609 113q3 23 16 50q11 21 32 41q17 16 44 27t51 11q25 0 49 -11q25 -12 38 -27q15 -18 22 -41q6 -20 3 -50 q-3 -27 -16 -51q-11 -21 -32 -40t-44 -28q-24 -9 -51 -9t-49 9q-20 8 -37 28q-14 17 -22 40q-7 22 -4 51z" />
<glyph unicode="&#x202f;" horiz-adv-x="376" />
<glyph unicode="&#x2039;" horiz-adv-x="504" d="M54 530l3 24l304 398l56 -28q13 -7 19 -19q5 -11 4 -24q-1 -17 -14 -34l-196 -267q-21 -28 -33 -38q14 -16 24 -37l130 -267q4 -7 6 -18q2 -9 0 -17q-3 -28 -34 -42l-63 -29z" />
<glyph unicode="&#x203a;" horiz-adv-x="499" d="M439 554l-3 -24l-304 -398l-56 29q-26 13 -23 42q1 16 14 35l196 267q19 27 32 37q-12 14 -23 38l-130 267q-7 18 -6 35q3 28 34 42l63 28z" />
<glyph unicode="&#x205f;" horiz-adv-x="470" />
<glyph unicode="&#x20ac;" horiz-adv-x="1229" d="M70 921h151q37 132 97 233q61 103 143 177q80 73 180 112q99 39 210 39q137 0 228 -51t152 -142l-71 -69q-10 -10 -19 -16q-11 -7 -23 -7q-17 0 -34 20q-13 15 -46 43q-28 23 -76 43q-47 19 -124 19q-150 0 -261 -102t-168 -299h560l-7 -57q-3 -18 -18 -33t-40 -15h-520 q-1 -7 -3.5 -20.5t-3.5 -20.5t-2.5 -21t-2.5 -21l-4 -32l-3 -30h478l-7 -58q-1 -17 -18 -32q-16 -15 -41 -15h-416q3 -210 89 -316t234 -106q53 0 99 11q43 10 76 27q33 16 57 36q42 34 43 35q15 14 32 27q14 11 27 11q6 0 14 -4q4 -2 13 -11l68 -71q-83 -104 -198 -163 q-111 -57 -260 -57q-120 0 -209 40q-91 41 -151 116q-61 76 -92 183q-31 106 -31 242h-145l12 105h138q1 5 1 15t1 15l4 32l6 42q1 7 3.5 20.5t3.5 20.5h-139z" />
<glyph unicode="&#x2122;" horiz-adv-x="1456" d="M985 1136q3 -10 9 -28q2 -5 6 -27q9 18 13 27q8 18 15 28l211 310q9 11 20 17q8 4 25 4h109l-75 -606h-113l46 374l19 77l-230 -344q-17 -29 -48 -29h-19q-31 0 -40 29l-147 341l-1 -74l-45 -374h-113l74 606h109q19 0 24 -4q9 -7 16 -17zM603 1467l-13 -107h-184 l-62 -499h-129l61 499h-184l13 107h498z" />
<glyph unicode="&#xe000;" horiz-adv-x="1038" d="M0 1039h1039v-1039h-1039v1039z" />
</font>
</defs>
</svg>
